\m/ 80's metal \m/

Информационно-аналитический форум "80 см пыли" (In Search We Trust) "У нас никто никуда не спешит"
Me For You - http://me-4u.com
It is currently 21 Nov 2018

All times are UTC + 3 hours

Spoiler
Chat - temporary registration for foreign users (please leave your application here)







Post new topic Reply to topic  [ 6 posts ] 
Author Message
 
PostPosted: 10 May 2011 
Хиппей (support team)
User avatar
Joined: 30 Jul 2007
Posts: 108243
Lоcаtion: Киев (Kyiv, UA)
Age: 45
Name: Andrey
Shok Paris - 1984 - Go For The Throat (reissued 2004) [flac]

Image

Image

Genre: Heavy Metal
Location: USA
Format: flac (tracks)+cue+scans
Size: 557 Mb


Line-up:

Vic Hix - vocals
Ken Erb - guitar
Eric Marderwald - guitar
Kel Berkshire - bass
Bill Sabo - drums

1. Marsielles De Sade instrumental - 02:28
2. Battle Cry - 03:02
3. Burn It Down - 03:17
4. On a Wing and a Prayer - 04:32
5. Chosen Ones - 05:13
6. Caged Tiger - 03:37
7. Never Say Why - 03:30
8. Go for the Throat - 03:09
9. Can't Fight the Evil - 04:34
10. Run But Don't Hide - 4:57
11. Go Down Fighting (studio bonus track) - 03:46
12. Streets of Pleasure (studio bonus track) - 04:44
13. Never Say Why (live bonus track) - 04:03
14. Burn It Down (live bonus track) - 03:22
15. Run But Don't Hide (live bonus track) - 04:30
16. Go Down Fighting (live bonus track) - 03:44
17. Highway Star (live bonus track) - 05:51
18. Go for the Throat (live bonus track) - 03:45
19. Can't Fight the Evil/Chosen Ones (live bonus track) - 06:27

TPT: 79:39

Почему-то не было у нас этого альбома в лосике... :oops:

Рип потрэковый :pardon:

MultiUp l Narod

Источник: http://aliveagain.moole.ru/289455-shok- ... hroat.html Автор рипа (заливки?): cammard :thanx:

cue
REM GENRE "Heavy Metal"
REM DATE 1984
REM DISCID DE126F13
REM COMMENT "ExactAudioCopy v1.0b1"
PERFORMER "Shok Paris"
TITLE "Go For The Throat (2004 Reissue)"
FILE "01. Marsielles De Sade.wav" WAVE
TRACK 01 AUDIO
TITLE "Marsielles De Sade"
PERFORMER "Shok Paris"
INDEX 01 00:00:00
TRACK 02 AUDIO
TITLE "Battle Cry"
PERFORMER "Shok Paris"
INDEX 00 02:28:37
FILE "02. Battle Cry.wav" WAVE
INDEX 01 00:00:00
TRACK 03 AUDIO
TITLE "Burn It Down"
PERFORMER "Shok Paris"
INDEX 00 03:00:23
FILE "03. Burn It Down.wav" WAVE
INDEX 01 00:00:00
TRACK 04 AUDIO
TITLE "On A Wing And A Prayer"
PERFORMER "Shok Paris"
INDEX 00 03:15:43
FILE "04. On A Wing And A Prayer.wav" WAVE
INDEX 01 00:00:00
TRACK 05 AUDIO
TITLE "Chosen Ones"
PERFORMER "Shok Paris"
INDEX 00 04:31:51
FILE "05. Chosen Ones.wav" WAVE
INDEX 01 00:00:00
TRACK 06 AUDIO
TITLE "Caged Tiger"
PERFORMER "Shok Paris"
INDEX 00 05:11:71
FILE "06. Caged Tiger.wav" WAVE
INDEX 01 00:00:00
TRACK 07 AUDIO
TITLE "Never Say Why"
PERFORMER "Shok Paris"
INDEX 00 03:35:23
FILE "07. Never Say Why.wav" WAVE
INDEX 01 00:00:00
TRACK 08 AUDIO
TITLE "Go For The Throat"
PERFORMER "Shok Paris"
INDEX 00 03:28:33
FILE "08. Go For The Throat.wav" WAVE
INDEX 01 00:00:00
TRACK 09 AUDIO
TITLE "Can't Fight The Evil"
PERFORMER "Shok Paris"
INDEX 00 03:07:50
FILE "09. Can't Fight The Evil.wav" WAVE
INDEX 01 00:00:00
TRACK 10 AUDIO
TITLE "Run But Don't Hide"
PERFORMER "Shok Paris"
INDEX 00 04:32:38
FILE "10. Run But Don't Hide.wav" WAVE
INDEX 01 00:00:00
TRACK 11 AUDIO
TITLE "Go Down Fighting (From 'Cleveland Metal - 1983' Clubside Records)"
PERFORMER "Shok Paris"
INDEX 00 04:52:14
FILE "11. Go Down Fighting (From ''Cleveland Metal - 1983'' Clubside Records).wav" WAVE
INDEX 01 00:00:00
TRACK 12 AUDIO
TITLE "Streets Of Pleasure (From 'Metal Madness Volume One - 1985' New Renaissance R..."
PERFORMER "Shok Paris"
INDEX 00 03:44:66
FILE "12. Streets Of Pleasure (From ''Metal Madness Volume One - 1985'' New Renaissance Records).wav" WAVE
INDEX 01 00:00:00
TRACK 13 AUDIO
TITLE "Never Say Why (Live In Wichita, KS, April 1989)"
PERFORMER "Shok Paris"
INDEX 00 04:40:44
FILE "13. Never Say Why (Live In Wichita, KS, April 1989).wav" WAVE
INDEX 01 00:00:00
TRACK 14 AUDIO
TITLE "Burn It Down (Live In Wichita, KS, April 1989)"
PERFORMER "Shok Paris"
INDEX 00 04:01:07
FILE "14. Burn It Down (Live In Wichita, KS, April 1989).wav" WAVE
INDEX 01 00:00:00
FILE "15. Run But Don't Hide (Live In Wichita, KS, April 1989).wav" WAVE
TRACK 15 AUDIO
TITLE "Run But Don't Hide (Live In Wichita, KS, April 1989)"
PERFORMER "Shok Paris"
INDEX 01 00:00:00
TRACK 16 AUDIO
TITLE "Go Down Fighting (Live In Wichita, KS, April 1989)"
PERFORMER "Shok Paris"
INDEX 00 04:30:34
FILE "16. Go Down Fighting (Live In Wichita, KS, April 1989).wav" WAVE
INDEX 01 00:00:00
TRACK 17 AUDIO
TITLE "Highway Star (Live In Wichita, KS, April 1989)"
PERFORMER "Shok Paris"
INDEX 00 03:42:42
FILE "17. Highway Star (Live In Wichita, KS, April 1989).wav" WAVE
INDEX 01 00:00:00
TRACK 18 AUDIO
TITLE "Go For The Throat (Live In Cleveland, OH December 1986)"
PERFORMER "Shok Paris"
INDEX 00 05:49:60
FILE "18. Go For The Throat (Live In Cleveland, OH December 1986).wav" WAVE
INDEX 01 00:00:00
TRACK 19 AUDIO
TITLE "Can't Fight The Evil / Chosen Ones (Live In Cleveland, OH December 1986)"
PERFORMER "Shok Paris"
INDEX 00 03:43:23
FILE "19. Can't Fight The Evil , Chosen Ones (Live In Cleveland, OH December 1986).wav" WAVE
INDEX 01 00:00:00


spectrum
Image

_________________


Top
 Profile E-mail  
 
 
PostPosted: 11 May 2011 
А может смените мне статус?..
User avatar
Joined: 24 Dec 2008
Posts: 621
Age: 44
Name: Дмитрий
:true:


Top
 Profile  
 
 
PostPosted: 20 May 2011 
Труъ
User avatar
Joined: 14 Jul 2009
Posts: 158
Lоcаtion: Hell Is Here
Age: 48
Name: Adriano
Many Thanx !! :thanx:


Top
 Profile E-mail  
 
 
PostPosted: 18 Dec 2011 
Почётный металлург
User avatar
Joined: 15 Sep 2007
Posts: 4357
Lоcаtion: Хабаровск
Age: 58
Name: чуть выше
Спасибо! Классная вещь

_________________
Коль будешь людей ты ослами честить,
тебе человеком меж них не прослыть!
(Саади, персидский поэт, 13в.)


Top
 Profile  
 
 
PostPosted: 10 Sep 2013 
Трешер
User avatar
Joined: 25 Feb 2011
Posts: 1062
Lоcаtion: Харьков
Age: 42
Name: Aleksandr
О ! а я только сейчас заметил , спасибо первого не было.:true:


Top
 Profile E-mail  
 
 
PostPosted: 12 Jul 2018 
А может смените мне статус?..
Joined: 03 Jul 2009
Posts: 825
Lоcаtion: Serbia
Name: Laki
What a fantastic album Everybody should listen to it.


Top
 Profile E-mail  
 
Display posts from previous:  Sort by  
Post new topic Reply to topic  [ 6 posts ] 

All times are UTC + 3 hours


Who is online

Users browsing this forum: No registered users and 2 guests


You cannot post new topics in this forum
You cannot reply to topics in this forum
You cannot edit your posts in this forum
You cannot delete your posts in this forum
You cannot post attachments in this forum

Search for:
Яндекс.Метрика
Powered by phpBB © 2000, 2002, 2005, 2007 phpBB Group