\m/ 80's metal \m/

Информационно-аналитический форум "80 см пыли" (In Search We Trust) "У нас никто никуда не спешит"
Me For You - http://me-4u.com
It is currently 24 Sep 2018

All times are UTC + 3 hours

Spoiler
Chat - temporary registration for foreign users (please leave your application here)







Post new topic Reply to topic  [ 5 posts ] 
Author Message
 
PostPosted: 28 Apr 2011 
Генеральный thrasher
User avatar
Joined: 03 Oct 2008
Posts: 3450
Lоcаtion: Ханты-Мансийский АО
Age: 43
Name: Сергей
Image

Year:1991
Style:Heavy Metal
Country:France
Audio:Wav+Cue+Log+Covers
Size:403Mb
Label:Semetery

Line-Up:
Michel Arnaud : Guitar
Aldo Guattieri : Drums
Pascal Bailly : Vocals
Jean-Marc Delalande : Bass
Bruno Robert: Guitar

Tracklist:
1. Suicide Girl 03:45
2. I Fell Down On My Knees 04:33
3. This Is What The World Is All About 04:26
4. Merry Go Round (Mary's Going Round) 04:05
5. Let The Good Times Roll 01:51
6. Who's Watching Me 03:47
7. Spit In His Face 03:47
8. Spend A Little Time With You 04:29
9. Gimme All You Got 03:07
10. Your Man 03:57

Cue
REM ACCURATERIPID 000eb8f6-0074c8a5-7f08f60a
REM DISCID 7F08F60A
REM COMMENT "ExactAudioCopy v0.99pb4"
REM DATE 1991
REM GENRE "Hard Rock"
PERFORMER "Squealer"
TITLE "This Is What The World Is All About"
FILE "Squealer - This Is What The World Is All About.wav" WAVE
TRACK 01 AUDIO
TITLE "Suicide Girl"
PERFORMER "Squealer"
INDEX 01 00:00:00
TRACK 02 AUDIO
TITLE "I Fell Down On My Kness"
PERFORMER "Squealer"
INDEX 00 03:48:70
INDEX 01 03:49:70
TRACK 03 AUDIO
TITLE "This Is What The World Is All About"
PERFORMER "Squealer"
INDEX 00 08:26:55
INDEX 01 08:27:55
TRACK 04 AUDIO
TITLE "Merry Go Round (Marys Going Round)"
PERFORMER "Squealer"
INDEX 00 12:55:65
INDEX 01 12:56:65
TRACK 05 AUDIO
TITLE "Let The Good Times Roll"
PERFORMER "Squealer"
INDEX 00 17:03:00
INDEX 01 17:04:00
TRACK 06 AUDIO
TITLE "Whos Watching Me"
PERFORMER "Squealer"
INDEX 00 18:56:27
INDEX 01 18:57:27
TRACK 07 AUDIO
TITLE "Spit In His Face"
PERFORMER "Squealer"
INDEX 00 22:46:70
INDEX 01 22:47:70
TRACK 08 AUDIO
TITLE "Spend A Little Time With You"
PERFORMER "Squealer"
INDEX 00 26:37:24
INDEX 01 26:38:25
TRACK 09 AUDIO
TITLE "Gimme All You Got"
PERFORMER "Squealer"
INDEX 00 31:09:02
INDEX 01 31:10:02
TRACK 10 AUDIO
TITLE "Your Man"
PERFORMER "Squealer"
INDEX 00 34:16:60
INDEX 01 34:17:60


Log
CUERipper v2.1.0

EAC extraction logfile from 21. April 2011, 23:23

Squealer / This Is What The World Is All About

Used drive : TSSTcorp CDDVDW SE-S224Q Adapter: 1 ID: 0

Read mode : Secure
Utilize accurate stream : Yes
Defeat audio cache : Yes
Make use of C2 pointers : No

Read offset correction : 6
Overread into Lead-In and Lead-Out : No
Fill up missing offset samples with silence : Yes
Delete leading and trailing silent blocks : No
Null samples used in CRC calculations : Yes
Used interface : Native Win32 interface for Win NT & 2000

Used output format : Internal WAV Routines
Sample format : 44.100 Hz; 16 Bit; Stereo


TOC of the extracted CD

Track | Start | Length | Start sector | End sector
---------------------------------------------------------
1 | 0:00.00 | 3:49.70 | 0 | 17244
2 | 3:49.70 | 4:37.60 | 17245 | 38079
3 | 8:27.55 | 4:29.10 | 38080 | 58264
4 | 12:56.65 | 4:07.10 | 58265 | 76799
5 | 17:04.00 | 1:53.27 | 76800 | 85301
6 | 18:57.27 | 3:50.43 | 85302 | 102594
7 | 22:47.70 | 3:50.30 | 102595 | 119874
8 | 26:38.25 | 4:31.52 | 119875 | 140251
9 | 31:10.02 | 3:07.58 | 140252 | 154334
10 | 34:17.60 | 3:56.70 | 154335 | 172104


Range status and errors

Selected range

Filename C:\Users\oldrock\Music\Squealer\1991 - This Is What The World Is All About\Squealer - This Is What The World Is All About.wav

Peak level 99.9 %
Range quality 100.0 %
Test CRC EAC2BC2C
Copy CRC EAC2BC2C
Copy OK

No errors occurred


AccurateRip summary

Track 1 not present in database
Track 2 not present in database
Track 3 not present in database
Track 4 not present in database
Track 5 not present in database
Track 6 not present in database
Track 7 not present in database
Track 8 not present in database
Track 9 not present in database
Track 10 not present in database

None of the tracks are present in the AccurateRip database

End of status report


This Is What The World Is All About!


Top
 Profile  
 
 
PostPosted: 28 Apr 2011 
Хиппей (support team)
User avatar
Joined: 30 Jul 2007
Posts: 106508
Lоcаtion: Киев (Kyiv, UA)
Age: 45
Name: Andrey
:thanx:

MultiUp l Narod

_________________


Top
 Profile E-mail  
 
 
PostPosted: 28 Apr 2011 
А может смените мне статус?..
Joined: 12 Dec 2008
Posts: 974
Lоcаtion: BULGARIA
Age: 40
Name: DIMITЪR
Спасибо за альбом ,а D.F.R._1987 будеть...... :true:


Top
 Profile  
 
 
PostPosted: 30 Apr 2011 
Генеральный thrasher
User avatar
Joined: 03 Oct 2008
Posts: 3450
Lоcаtion: Ханты-Мансийский АО
Age: 43
Name: Сергей
cryptors wrote:
Спасибо за альбом ,а D.F.R._1987 будеть...... :true:


Сам ищу.Пока нету...


Top
 Profile  
 
 
PostPosted: 01 May 2011 
Power Metal Maniac
User avatar
Joined: 09 Aug 2008
Posts: 6304
Lоcаtion: Москва
Age: 40
Name: Егор
:thanx:

_________________
Long Live Metal!


Top
 Profile  
 
Display posts from previous:  Sort by  
Post new topic Reply to topic  [ 5 posts ] 

All times are UTC + 3 hours


Who is online

Users browsing this forum: No registered users and 2 guests


You cannot post new topics in this forum
You cannot reply to topics in this forum
You cannot edit your posts in this forum
You cannot delete your posts in this forum
You cannot post attachments in this forum

Search for:
Яндекс.Метрика
Powered by phpBB © 2000, 2002, 2005, 2007 phpBB Group