\m/ 80's metal \m/

Информационно-аналитический форум "80 см пыли" (In Search We Trust) "У нас никто никуда не спешит"
Me For You - http://me-4u.com
It is currently 19 Sep 2018

All times are UTC + 3 hours

Spoiler
Chat - temporary registration for foreign users (please leave your application here)







Post new topic Reply to topic  [ 4 posts ] 
Author Message
 
PostPosted: 17 Mar 2011 
Хиппей (support team)
User avatar
Joined: 30 Jul 2007
Posts: 106323
Lоcаtion: Киев (Kyiv, UA)
Age: 45
Name: Andrey
Shotgun Messiah - 1991 - Second Coming [flac]

Attachment:
front.jpg
front.jpg [ 1.14 MiB | Viewed 127 times ]

Attachment:
back.jpg
back.jpg [ 817.9 KiB | Viewed 134 times ]


Genre: Hard Rock/Glam
Location: Sweden
Format: flac+cue+log+scans
Size: 412 Mb


Line-up:

Tim Skold - Vocals
Harry Cody - Guitars
Bobby Lycon - Bass
Stixx - Drums

    1. SexDrugsRockn'Roll - 03:25
    2. Red Hot - 04:24
    3. Nobody's Home - 04:45
    4. Living Without You - 04:05
    5. Heartbreak Blvd - 04:19
    6. I Want More - 06:11
    7. Trouble - 04:36
    8. Ride The Storm - 03:59
    9. I Wanna Know - 04:47
    10. Babylon - 02:57
    11. Free - 05:14
    12. You & Me - 04:15
    13. Can't Fool Me - 04:01

    TPT: 56:57

Источник: http://rutracker.org/forum/viewtopic.php?t=1956362 :thanx:

MultiUp l Narod

log
Exact Audio Copy V1.0 beta 1 from 15. November 2010

EAC extraction logfile from 7. January 2011, 1:02

Shotgun Messiah / Second Coming

Used drive : PLEXTOR DVDR PX-810SA Adapter: 3 ID: 0

Read mode : Secure
Utilize accurate stream : Yes
Defeat audio cache : Yes
Make use of C2 pointers : No

Read offset correction : 48
Overread into Lead-In and Lead-Out : No
Fill up missing offset samples with silence : Yes
Delete leading and trailing silent blocks : No
Null samples used in CRC calculations : Yes
Used interface : Installed external ASPI interface

Used output format : Internal WAV Routines
Sample format : 44.100 Hz; 16 Bit; Stereo


TOC of the extracted CD

Track | Start | Length | Start sector | End sector
---------------------------------------------------------
1 | 0:00.12 | 3:24.65 | 12 | 15376
2 | 3:25.02 | 4:23.63 | 15377 | 35164
3 | 7:48.65 | 4:45.00 | 35165 | 56539
4 | 12:33.65 | 4:05.07 | 56540 | 74921
5 | 16:38.72 | 4:19.13 | 74922 | 94359
6 | 20:58.10 | 6:10.55 | 94360 | 122164
7 | 27:08.65 | 4:35.40 | 122165 | 142829
8 | 31:44.30 | 3:58.62 | 142830 | 160741
9 | 35:43.17 | 4:46.68 | 160742 | 182259
10 | 40:30.10 | 2:56.60 | 182260 | 195519
11 | 43:26.70 | 5:13.55 | 195520 | 219049
12 | 48:40.50 | 4:15.25 | 219050 | 238199
13 | 52:56.00 | 4:01.12 | 238200 | 256286


Range status and errors

Selected range

Filename D:\tmp\Shotgun Messiah - Second Coming.wav

Peak level 100.0 %
Extraction speed 0.5 X
Range quality 100.0 %
Test CRC C6F94383
Copy CRC C6F94383
Copy OK

No errors occurred


AccurateRip summary

Track 1 accurately ripped (confidence 17) [F80FFA2C]
Track 2 accurately ripped (confidence 18) [E9BA9CC8]
Track 3 accurately ripped (confidence 17) [2264644D]
Track 4 accurately ripped (confidence 19) [CB92A9BE]
Track 5 accurately ripped (confidence 18) [84511C1E]
Track 6 accurately ripped (confidence 19) [F6FEC91E]
Track 7 accurately ripped (confidence 17) [E52DEA6F]
Track 8 accurately ripped (confidence 18) [9E8292B9]
Track 9 accurately ripped (confidence 18) [F16D7B3E]
Track 10 accurately ripped (confidence 18) [E784EDF7]
Track 11 accurately ripped (confidence 18) [CECDDBD5]
Track 12 accurately ripped (confidence 18) [BB4DDA05]
Track 13 accurately ripped (confidence 16) [5B645AFA]

All tracks accurately ripped

End of status report

==== Log checksum E70CAAA3294B4636975B2F36C838A8A81DDED9385A4D68319739CABED55B9984 ====


cue
REM GENRE "Glam Metal"
REM DATE 1991
REM DISCID 940D590D
REM COMMENT "ExactAudioCopy v1.0b1"
PERFORMER "Shotgun Messiah"
TITLE "Second Coming"
FILE "Shotgun Messiah - Second Coming.flac" WAVE
TRACK 01 AUDIO
TITLE "SexDrugsRockN'Roll"
PERFORMER "Shotgun Messiah"
INDEX 00 00:00:00
INDEX 01 00:00:12
TRACK 02 AUDIO
TITLE "Red Hot"
PERFORMER "Shotgun Messiah"
INDEX 01 03:25:02
TRACK 03 AUDIO
TITLE "Nobody's Home"
PERFORMER "Shotgun Messiah"
INDEX 01 07:48:65
TRACK 04 AUDIO
TITLE "Living Without You"
PERFORMER "Shotgun Messiah"
INDEX 01 12:33:65
TRACK 05 AUDIO
TITLE "Heartbreak Blvd"
PERFORMER "Shotgun Messiah"
INDEX 00 16:37:70
INDEX 01 16:38:72
TRACK 06 AUDIO
TITLE "I Want More"
PERFORMER "Shotgun Messiah"
INDEX 01 20:58:10
TRACK 07 AUDIO
TITLE "Trouble"
PERFORMER "Shotgun Messiah"
INDEX 01 27:08:65
TRACK 08 AUDIO
TITLE "Ride The Storm"
PERFORMER "Shotgun Messiah"
INDEX 01 31:44:30
TRACK 09 AUDIO
TITLE "I Wanna Know"
PERFORMER "Shotgun Messiah"
INDEX 00 35:42:47
INDEX 01 35:43:17
TRACK 10 AUDIO
TITLE "Babylon"
PERFORMER "Shotgun Messiah"
INDEX 01 40:30:10
TRACK 11 AUDIO
TITLE "Free"
PERFORMER "Shotgun Messiah"
INDEX 00 43:26:37
INDEX 01 43:26:70
TRACK 12 AUDIO
TITLE "You & Me"
PERFORMER "Shotgun Messiah"
INDEX 00 48:39:45
INDEX 01 48:40:50
TRACK 13 AUDIO
TITLE "Can't Fool Me"
PERFORMER "Shotgun Messiah"
INDEX 01 52:56:00


spectrum
Attachment:
spectrum.gif
spectrum.gif [ 603.68 KiB | Viewed 121 times ]

_________________


Top
 Profile E-mail  
 
 
PostPosted: 13 Nov 2011 
Power Metal Maniac
User avatar
Joined: 09 Aug 2008
Posts: 6296
Lоcаtion: Москва
Age: 40
Name: Егор
ну вот, подробностей так и нет) И я чуть не скачал, а это неметал)

_________________
Long Live Metal!


Top
 Profile  
 
 
PostPosted: 13 Nov 2011 
Хиппей (support team)
User avatar
Joined: 30 Jul 2007
Posts: 106323
Lоcаtion: Киев (Kyiv, UA)
Age: 45
Name: Andrey
Хи, это швецкий хард-глэм. Еще хард, ибо затем группа пересеклась с Трентон Резнором, если не ошибаюсь, и выдала опупезный альбом. Который почти всем не нравится, а я обожаю :crazy: :true:

Сейчас попробую инфу добавить... :oops:

зы. Добавлено :pavlik:

_________________


Top
 Profile E-mail  
 
 
PostPosted: 23 Jul 2012 
Труъ
User avatar
Joined: 05 Oct 2008
Posts: 194
Lоcаtion: Saint Petersburg
Age: 45
Name: Jesse
А вот за этот альбом спасибо большое, не было его.


Top
 Profile  
 
Display posts from previous:  Sort by  
Post new topic Reply to topic  [ 4 posts ] 

All times are UTC + 3 hours


Who is online

Users browsing this forum: No registered users and 3 guests


You cannot post new topics in this forum
You cannot reply to topics in this forum
You cannot edit your posts in this forum
You cannot delete your posts in this forum
You cannot post attachments in this forum

Search for:
Яндекс.Метрика
Powered by phpBB © 2000, 2002, 2005, 2007 phpBB Group