\m/ 80's metal \m/

Информационно-аналитический форум "80 см пыли" (In Search We Trust) "У нас никто никуда не спешит"
Железнодорожная биржа - RailAgent
It is currently 22 Jul 2018

All times are UTC + 3 hours

Spoiler
Chat - temporary registration for foreign users (please leave your application here)







Post new topic Reply to topic  [ 9 posts ] 
Author Message
 
PostPosted: 04 Mar 2011 
Работнечег
User avatar
Joined: 28 Aug 2007
Posts: 5387
Lоcаtion: г. Москва
Age: 29
Name: Дима
Image

Band: Syar
Album: Death Before Dishonour
Year: 1994
Label: Mausoleum Classix
Genre: Heavy Metal
Coutry: UK
Format: Flac + Log + Cue + Covers
Size: 317 Mb

Line-Up:
Martin Berkeley - Vocals
Buzz - Guitar
Grant Kirkhope - Guitar (Maineeaxe, Dive)
Roger Gibbons - Bass (Maineeaxe)
Nigel Harrison - Drums (Maineeaxe, Dive)


Tracklist:
1. On The Streets 02:33
2. Speeder 04:08
3. Find The Angel 05:08
4. I'm Taking Off 03:20
5. Death Before Dishonour 05:50
6. High Flyer 03:23
7. Judgement 04:28
8. Taking A Gamble 04:05
9. Warriors 03:32
10. Trailblazer 03:44
11. Deep In The Night 03:50
Total playing time 43:52

LOG
Exact Audio Copy V0.99 prebeta 5 from 4. May 2009

EAC extraction logfile from 4. March 2011, 19:00

Syar / Death Before Dishonour

Used drive : PIONEER DVD-RW DVR-116D Adapter: 0 ID: 0

Read mode : Secure
Utilize accurate stream : Yes
Defeat audio cache : Yes
Make use of C2 pointers : No

Read offset correction : 96
Overread into Lead-In and Lead-Out : No
Fill up missing offset samples with silence : Yes
Delete leading and trailing silent blocks : No
Null samples used in CRC calculations : Yes
Used interface : Native Win32 interface for Win NT & 2000

Used output format : User Defined Encoder
Selected bitrate : 32 kBit/s
Quality : High
Add ID3 tag : No
Command line compressor : C:\Program Files\Exact Audio Copy\Flac\flac.exe
Additional command line options : -6 -V %s


TOC of the extracted CD

Track | Start | Length | Start sector | End sector
---------------------------------------------------------
1 | 0:00.00 | 2:35.60 | 0 | 11684
2 | 2:35.60 | 4:09.62 | 11685 | 30421
3 | 6:45.47 | 5:12.33 | 30422 | 53854
4 | 11:58.05 | 3:23.15 | 53855 | 69094
5 | 15:21.20 | 5:58.05 | 69095 | 95949
6 | 21:19.25 | 3:25.52 | 95950 | 111376
7 | 24:45.02 | 4:31.33 | 111377 | 131734
8 | 29:16.35 | 4:06.70 | 131735 | 150254
9 | 33:23.30 | 3:35.45 | 150255 | 166424
10 | 36:59.00 | 3:47.40 | 166425 | 183489
11 | 40:46.40 | 3:52.12 | 183490 | 200901


Range status and errors

Selected range

Filename D:\Музыка\Lossless\Syar - Death Before Dishonour (1984)(Rerelease In 1994)\Syar - Death Before Dishonour.wav

Peak level 98.4 %
Range quality 100.0 %
Copy CRC E15500BB
Copy OK

No errors occurred


AccurateRip summary

Track 1 not present in database
Track 2 not present in database
Track 3 not present in database
Track 4 not present in database
Track 5 not present in database
Track 6 not present in database
Track 7 not present in database
Track 8 not present in database
Track 9 not present in database
Track 10 not present in database
Track 11 not present in database

None of the tracks are present in the AccurateRip database

End of status report

CUE
REM GENRE "Heavy Metal"
REM DATE 1994
REM DISCID 860A760B
REM COMMENT "ExactAudioCopy v0.99pb5"
PERFORMER "Syar"
TITLE "Death Before Dishonour"
FILE "Syar - Death Before Dishonour.flac" WAVE
TRACK 01 AUDIO
TITLE "On The Streets"
PERFORMER "Syar"
INDEX 01 00:00:00
TRACK 02 AUDIO
TITLE "Speeder"
PERFORMER "Syar"
INDEX 00 02:32:50
INDEX 01 02:35:60
TRACK 03 AUDIO
TITLE "Find The Angel"
PERFORMER "Syar"
INDEX 00 06:42:10
INDEX 01 06:45:47
TRACK 04 AUDIO
TITLE "I'm Taking Off"
PERFORMER "Syar"
INDEX 00 11:53:15
INDEX 01 11:58:05
TRACK 05 AUDIO
TITLE "Death Before Dishonour"
PERFORMER "Syar"
INDEX 00 15:16:37
INDEX 01 15:21:20
TRACK 06 AUDIO
TITLE "High Flyer"
PERFORMER "Syar"
INDEX 00 21:14:52
INDEX 01 21:19:25
TRACK 07 AUDIO
TITLE "Judgement"
PERFORMER "Syar"
INDEX 00 24:41:15
INDEX 01 24:45:02
TRACK 08 AUDIO
TITLE "Taking A Gamble"
PERFORMER "Syar"
INDEX 00 29:12:67
INDEX 01 29:16:35
TRACK 09 AUDIO
TITLE "Warriors"
PERFORMER "Syar"
INDEX 00 33:20:25
INDEX 01 33:23:30
TRACK 10 AUDIO
TITLE "Trail Blazer"
PERFORMER "Syar"
INDEX 00 36:55:37
INDEX 01 36:59:00
TRACK 11 AUDIO
TITLE "Deep In The Night"
PERFORMER "Syar"
INDEX 00 40:42:22
INDEX 01 40:46:40


Narod.Ru


Top
 Profile E-mail  
 
 
PostPosted: 04 Mar 2011 
Прокъмитолист
User avatar
Joined: 12 Aug 2007
Posts: 6421
Lоcаtion: Санктъ-Петербуркъ
Age: 50
Name: Олекъ
не слышал никогда. но серия хорошая, надо бы утянуть. спасибо! :thanx:

_________________
прокъметол - это музыко, от которово есть прок (ы)


Top
 Profile  
 
 
PostPosted: 04 Mar 2011 
Работнечег
User avatar
Joined: 28 Aug 2007
Posts: 5387
Lоcаtion: г. Москва
Age: 29
Name: Дима
Да, альбом вполне на уровне :true: Надо ещё Scavenger достать и я буду счастлив)


Top
 Profile E-mail  
 
 
PostPosted: 05 Mar 2011 
Труъ
User avatar
Joined: 14 Jul 2009
Posts: 158
Lоcаtion: Hell Is Here
Age: 48
Name: Adriano
Many Thanx ! :thanx:


Top
 Profile E-mail  
 
 
PostPosted: 05 Mar 2011 
Хиппей (support team)
User avatar
Joined: 30 Jul 2007
Posts: 105197
Lоcаtion: Киев (Kyiv, UA)
Age: 45
Name: Andrey
:thanx:

mirror: Narod

_________________


Top
 Profile E-mail  
 
 
PostPosted: 18 Mar 2011 
Пионэръ
User avatar
Joined: 08 Nov 2010
Posts: 43
Lоcаtion: Россия
Name: Юрий
church
Спасибо! Хорошая команда!


Top
 Profile E-mail  
 
 
PostPosted: 10 Oct 2013 
Хиппей (support team)
User avatar
Joined: 30 Jul 2007
Posts: 105197
Lоcаtion: Киев (Kyiv, UA)
Age: 45
Name: Andrey
Hard Rock на стыке NWOBHM.
Жаль вяловато как-то получилось... :vic: Хотя, еще несколько раз послушаю альбом

_________________


Top
 Profile E-mail  
 
 
PostPosted: 10 Oct 2013 
Хиппей (support team)
User avatar
Joined: 30 Jul 2007
Posts: 105197
Lоcаtion: Киев (Kyiv, UA)
Age: 45
Name: Andrey
А всё равно вяловато и как-то невыразительно звучит альбом :pardon:

_________________


Top
 Profile E-mail  
 
 
PostPosted: 10 Oct 2013 
\m/ 80 см сала \m/
User avatar
Joined: 12 Mar 2012
Posts: 2582
Age: 25
Name: Nick
:thanx:

_________________
1990 AUROPHON BRAINSTORM (Germany) - lossless
1994 MAUSOLEUM CLASSIX (Belgium-Germany) - lossless
1998 VA - GRIM HARVEST - Complete Metal Massacre Volumes I-XII


Top
 Profile  
 
Display posts from previous:  Sort by  
Post new topic Reply to topic  [ 9 posts ] 

All times are UTC + 3 hours


Who is online

Users browsing this forum: No registered users and 4 guests


You cannot post new topics in this forum
You cannot reply to topics in this forum
You cannot edit your posts in this forum
You cannot delete your posts in this forum
You cannot post attachments in this forum

Search for:
Яндекс.Метрика
Powered by phpBB © 2000, 2002, 2005, 2007 phpBB Group