\m/ 80's metal \m/

Информационно-аналитический форум "80 см пыли" (In Search We Trust) "У нас никто никуда не спешит"
Me For You - http://me-4u.com
It is currently 22 Nov 2018

All times are UTC + 3 hours

Spoiler
Chat - temporary registration for foreign users (please leave your application here)







Post new topic Reply to topic  [ 12 posts ] 
Author Message
 
PostPosted: 12 Jan 2011 
А может смените мне статус?..
Joined: 03 Jul 2009
Posts: 829
Lоcаtion: Serbia
Name: Laki
Image

Year: 2006
Style: Power Metal
Country: Germany
Format: APE (image, cue, scans)
Size: 318 mb

1. Pounding Inferno
2. Children of the Spirit
3. Hell Insanity
4. Unholy Majesty
5. A Curse Upon Your Name
6. Iron Blessings
7. Zombie Ritual (Death cover)
8. All for One (Raven cover)
9. Metal Knights (Nasty Savage cover)
10. (Empty) Tankard (Tankard cover)


Megaupload


Log
Exact Audio Copy V0.99 prebeta 5 from 4. May 2009

EAC extraction logfile from 12. January 2011, 13:45

Sacred Steel / Pounding Inferno

Used drive : PIONEER DVD-RW DVR-115D Adapter: 0 ID: 0

Read mode : Secure
Utilize accurate stream : Yes
Defeat audio cache : Yes
Make use of C2 pointers : No

Read offset correction : 48
Overread into Lead-In and Lead-Out : No
Fill up missing offset samples with silence : Yes
Delete leading and trailing silent blocks : No
Null samples used in CRC calculations : Yes
Used interface : Native Win32 interface for Win NT & 2000

Used output format : Internal WAV Routines
Sample format : 44.100 Hz; 16 Bit; Stereo


TOC of the extracted CD

Track | Start | Length | Start sector | End sector
---------------------------------------------------------
1 | 0:00.00 | 4:33.70 | 0 | 20544
2 | 4:33.70 | 4:00.16 | 20545 | 38560
3 | 8:34.11 | 3:29.11 | 38561 | 54246
4 | 12:03.22 | 4:42.24 | 54247 | 75420
5 | 16:45.46 | 3:36.01 | 75421 | 91621
6 | 20:21.47 | 3:51.70 | 91622 | 109016
7 | 24:13.42 | 4:02.69 | 109017 | 127235
8 | 28:16.36 | 3:39.41 | 127236 | 143701
9 | 31:56.02 | 2:58.27 | 143702 | 157078
10 | 34:54.29 | 5:29.69 | 157079 | 181822


Range status and errors

Selected range

Filename D:\Sacred Steel\Pounding Inferno\Sacred Steel - Pounding Inferno.wav

Peak level 100.0 %
Range quality 100.0 %
Copy CRC 9727C1BB
Copy OK

No errors occurred


AccurateRip summary

Track 1 not present in database
Track 2 not present in database
Track 3 not present in database
Track 4 not present in database
Track 5 not present in database
Track 6 not present in database
Track 7 not present in database
Track 8 not present in database
Track 9 not present in database
Track 10 not present in database

None of the tracks are present in the AccurateRip database

End of status report



Cue
REM DISCID 8509780A
REM COMMENT "ExactAudioCopy v0.99pb5"
PERFORMER "Sacred Steel"
TITLE "Pounding Inferno"
FILE "Sacred Steel - Pounding Inferno.wav" WAVE
TRACK 01 AUDIO
TITLE "Pounding Inferno"
PERFORMER "Sacred Steel"
FLAGS DCP
INDEX 01 00:00:00
TRACK 02 AUDIO
TITLE "Children of the Spirit"
PERFORMER "Sacred Steel"
FLAGS DCP
INDEX 01 04:33:70
TRACK 03 AUDIO
TITLE "Hell Insanity"
PERFORMER "Sacred Steel"
FLAGS DCP
INDEX 00 08:34:05
INDEX 01 08:34:11
TRACK 04 AUDIO
TITLE "Unholy Majesty"
PERFORMER "Sacred Steel"
FLAGS DCP
INDEX 00 12:03:21
INDEX 01 12:03:22
TRACK 05 AUDIO
TITLE "A Curse Upon Your Name"
PERFORMER "Sacred Steel"
FLAGS DCP
INDEX 00 16:45:43
INDEX 01 16:45:46
TRACK 06 AUDIO
TITLE "Iron Blessing"
PERFORMER "Sacred Steel"
FLAGS DCP
INDEX 01 20:21:47
TRACK 07 AUDIO
TITLE "Zombie Ritual"
PERFORMER "Sacred Steel"
FLAGS DCP
INDEX 01 24:13:42
TRACK 08 AUDIO
TITLE "All For One"
PERFORMER "Sacred Steel"
FLAGS DCP
INDEX 01 28:16:36
TRACK 09 AUDIO
TITLE "Metal Knights"
PERFORMER "Sacred Steel"
FLAGS DCP
INDEX 01 31:56:02
TRACK 10 AUDIO
TITLE "(Empty) Tankard"
PERFORMER "Sacred Steel"
FLAGS DCP
INDEX 01 34:54:29


Top
 Profile E-mail  
 
 
PostPosted: 13 Jan 2011 
Хиппей (support team)
User avatar
Joined: 30 Jul 2007
Posts: 108264
Lоcаtion: Киев (Kyiv, UA)
Age: 45
Name: Andrey
:thanx:

mirror: http://www.multiupload.com/BU030RWTOH

_________________


Top
 Profile E-mail  
 
 
PostPosted: 13 Jan 2011 
Анатолий
User avatar
Joined: 18 Oct 2008
Posts: 3199
Lоcаtion: Армавир
Age: 41
Name: Анатолий
glory11

:thanx: :true: :true: :true:

Кто скажет, что это плохая группа - прокляну!!! :black:


Top
 Profile E-mail  
 
 
PostPosted: 13 Jan 2011 
Генеральный thrasher
User avatar
Joined: 03 Oct 2008
Posts: 3510
Lоcаtion: Ханты-Мансийский АО
Age: 43
Name: Сергей
:losik: :true: :thanx:


Top
 Profile  
 
 
PostPosted: 13 Jan 2011 
А может смените мне статус?..
User avatar
Joined: 24 Dec 2008
Posts: 621
Age: 44
Name: Дмитрий
Спасибо!


Top
 Profile  
 
 
PostPosted: 13 Jan 2011 
А может смените мне статус?..
User avatar
Joined: 02 Feb 2009
Posts: 999
Lоcаtion: из Тулы
Age: 44
Name: Максим
вот спасибище то!
не проклянайте только

_________________
КМА


Top
 Profile  
 
 
PostPosted: 14 Jan 2011 
Metal Collector
User avatar
Joined: 16 Nov 2008
Posts: 1230
Lоcаtion: Химки
Age: 35
Name: Андрей
Спасибо огромное, заберу тоже! SS нравятся, хотя кассету с их первым альбомом в 97-м я после первого прослушивания хотел разбить об стену :)


Top
 Profile E-mail  
 
 
PostPosted: 15 Jan 2011 
Power Metal Maniac
User avatar
Joined: 09 Aug 2008
Posts: 6375
Lоcаtion: Москва
Age: 40
Name: Егор
:thanx:

_________________
Long Live Metal!


Top
 Profile  
 
 
PostPosted: 17 Jan 2011 
5-speed satisfactor
User avatar
Joined: 16 Feb 2009
Posts: 3622
Lоcаtion: New York, USA
Age: 40
Name: Leonid
Вах, спасибо. Час назад стал мп3 искать, как вдруг на это наткнулся...

_________________
Death rules! Metal to all who oppose!


Top
 Profile  
 
 
PostPosted: 17 Jan 2011 
Хиппей (support team)
User avatar
Joined: 30 Jul 2007
Posts: 108264
Lоcаtion: Киев (Kyiv, UA)
Age: 45
Name: Andrey
Terrion wrote:
хотя кассету с их первым альбомом в 97-м я после первого прослушивания хотел разбить об стену :)

:crazy:

_________________


Top
 Profile E-mail  
 
 
PostPosted: 25 Jan 2011 
Прокъмитолист
User avatar
Joined: 12 Aug 2007
Posts: 6504
Lоcаtion: Санктъ-Петербуркъ
Age: 51
Name: Олекъ
спасибо, Лаки! :thanx: :true: (чего только не скачаешь, чтоб не быть проклятым :crazy: )

_________________
прокъметол - это музыко, от которово есть прок (ы)


Top
 Profile  
 
 
PostPosted: 25 Jan 2011 
Хиппей (support team)
User avatar
Joined: 30 Jul 2007
Posts: 108264
Lоcаtion: Киев (Kyiv, UA)
Age: 45
Name: Andrey
Олег, отпишись, плиз, парой-много слов, как прослушаешь альбом :true:

_________________


Top
 Profile E-mail  
 
Display posts from previous:  Sort by  
Post new topic Reply to topic  [ 12 posts ] 

All times are UTC + 3 hours


Who is online

Users browsing this forum: No registered users and 2 guests


You cannot post new topics in this forum
You cannot reply to topics in this forum
You cannot edit your posts in this forum
You cannot delete your posts in this forum
You cannot post attachments in this forum

Search for:
Яндекс.Метрика
Powered by phpBB © 2000, 2002, 2005, 2007 phpBB Group