\m/ 80's metal \m/

Информационно-аналитический форум "80 см пыли" (In Search We Trust) "У нас никто никуда не спешит"
Железнодорожная биржа - RailAgent
It is currently 22 Jul 2018

All times are UTC + 3 hours

Spoiler
Chat - temporary registration for foreign users (please leave your application here)







Post new topic Reply to topic  [ 14 posts ] 
Author Message
 
PostPosted: 06 Jan 2011 
труъ антисионист
User avatar
Joined: 01 Aug 2007
Posts: 4541
Lоcаtion: Откуда и большинство из нас
Age: 37
Name: Дядя Вова
Image
Группа: Syris
Альбом: Unseen Forces
Год: 1998
Лейбл: Crazy Life Music
Стиль: Power/Progressive Metal
Страна: USA
Формат: Flac Tracks
Размер: 406 Mb

******************************************************************************

Line Up:

Scott Huffman - vocals
Paul Speredes - guitars
Rob Such - bass
Sean Brown - drums


Tracks:
1. Captured 03:23
2. Last Reign 05:04
3. Tonic Sounds 05:38
4. Unseen Forces 04:34
5. Beautiful Lies and the Ugly Truth 03:57
6. Head Rush 04:25
7. Spreading the Lead 04:29
8. Angry At The World 04:52
9. Broken Soul 04:26
10. Solitary War 06:06
11. Intruder 05:48


Total playing time 52:42

LOG
Exact Audio Copy V0.99 prebeta 5 from 4. May 2009

EAC extraction logfile from 11. September 2010, 16:25

Syris / Unseen Forces

Used drive : ATAPI DVD D DH16D2S Adapter: 0 ID: 2

Read mode : Secure
Utilize accurate stream : Yes
Defeat audio cache : Yes
Make use of C2 pointers : No

Read offset correction : 6
Overread into Lead-In and Lead-Out : No
Fill up missing offset samples with silence : Yes
Delete leading and trailing silent blocks : No
Null samples used in CRC calculations : Yes
Used interface : Native Win32 interface for Win NT & 2000
Gap handling : Appended to previous track

Used output format : User Defined Encoder
Selected bitrate : 320 kBit/s
Quality : High
Add ID3 tag : No
Command line compressor : C:\Program Files\FLAC\flac.exe
Additional command line options : -V -8 -T "artist=%a" -T "title=%t" -T "album=%g" -T "date=%y" -T "tracknumber=%n" -T "genre=%m" %s


TOC of the extracted CD

Track | Start | Length | Start sector | End sector
---------------------------------------------------------
1 | 0:00.00 | 3:23.64 | 0 | 15288
2 | 3:23.64 | 5:04.59 | 15289 | 38147
3 | 8:28.48 | 5:38.42 | 38148 | 63539
4 | 14:07.15 | 4:34.37 | 63540 | 84126
5 | 18:41.52 | 3:56.70 | 84127 | 101896
6 | 22:38.47 | 4:45.21 | 101897 | 123292
7 | 27:23.68 | 4:29.12 | 123293 | 143479
8 | 31:53.05 | 4:52.09 | 143480 | 165388
9 | 36:45.14 | 4:26.12 | 165389 | 185350
10 | 41:11.26 | 6:06.22 | 185351 | 212822
11 | 47:17.48 | 5:48.32 | 212823 | 238954


Track 1

Filename C:\Users\Frank\Music\Ripped Albums\Syris - Unseen Forces (1998) Flac Level 8\Syris - 01 - Spreading The Lead.wav

Pre-gap length 0:00:02.00

Peak level 100.0 %
Track quality 99.9 %
Test CRC 560ECE9E
Copy CRC 560ECE9E
Cannot be verified as accurate (confidence 1) [E073AA8D], AccurateRip returned [C504B10D]
Copy OK

Track 2

Filename C:\Users\Frank\Music\Ripped Albums\Syris - Unseen Forces (1998) Flac Level 8\Syris - 02 - Angry At The World.wav

Pre-gap length 0:00:02.00

Peak level 100.0 %
Track quality 100.0 %
Test CRC CC6CFED0
Copy CRC CC6CFED0
Cannot be verified as accurate (confidence 1) [82170D17], AccurateRip returned [A1DC5859]
Copy OK

Track 3

Filename C:\Users\Frank\Music\Ripped Albums\Syris - Unseen Forces (1998) Flac Level 8\Syris - 03 - Broken Soul.wav

Pre-gap length 0:00:02.00

Peak level 100.0 %
Track quality 100.0 %
Test CRC F6ED02C6
Copy CRC F6ED02C6
Cannot be verified as accurate (confidence 1) [51E79654], AccurateRip returned [C1A98A66]
Copy OK

Track 4

Filename C:\Users\Frank\Music\Ripped Albums\Syris - Unseen Forces (1998) Flac Level 8\Syris - 04 - Unseen Forces.wav

Pre-gap length 0:00:02.00

Peak level 100.0 %
Track quality 100.0 %
Test CRC 6DCB0353
Copy CRC 6DCB0353
Cannot be verified as accurate (confidence 1) [60170B84], AccurateRip returned [8C554AAF]
Copy OK

Track 5

Filename C:\Users\Frank\Music\Ripped Albums\Syris - Unseen Forces (1998) Flac Level 8\Syris - 05 - Captured.wav

Pre-gap length 0:00:02.00

Peak level 100.0 %
Track quality 100.0 %
Test CRC 2B0E64C2
Copy CRC 2B0E64C2
Cannot be verified as accurate (confidence 1) [4B44D591], AccurateRip returned [87F3C2C7]
Copy OK

Track 6

Filename C:\Users\Frank\Music\Ripped Albums\Syris - Unseen Forces (1998) Flac Level 8\Syris - 06 - Head Rush.wav

Pre-gap length 0:00:02.00

Peak level 100.0 %
Track quality 100.0 %
Test CRC 5796F705
Copy CRC 5796F705
Cannot be verified as accurate (confidence 1) [D02C751D], AccurateRip returned [850F181D]
Copy OK

Track 7

Filename C:\Users\Frank\Music\Ripped Albums\Syris - Unseen Forces (1998) Flac Level 8\Syris - 07 - Tonic Sounds.wav

Pre-gap length 0:00:02.00

Peak level 100.0 %
Track quality 100.0 %
Test CRC E111E9DD
Copy CRC E111E9DD
Cannot be verified as accurate (confidence 1) [5CFEB133], AccurateRip returned [691567B7]
Copy OK

Track 8

Filename C:\Users\Frank\Music\Ripped Albums\Syris - Unseen Forces (1998) Flac Level 8\Syris - 08 - Last Reign.wav

Pre-gap length 0:00:02.00

Peak level 100.0 %
Track quality 100.0 %
Test CRC A8AB80DF
Copy CRC A8AB80DF
Cannot be verified as accurate (confidence 1) [B7E8D843], AccurateRip returned [E1A0806E]
Copy OK

Track 9

Filename C:\Users\Frank\Music\Ripped Albums\Syris - Unseen Forces (1998) Flac Level 8\Syris - 09 - Intruder.wav

Pre-gap length 0:00:01.98

Peak level 100.0 %
Track quality 100.0 %
Test CRC 7EFF60C0
Copy CRC 7EFF60C0
Cannot be verified as accurate (confidence 1) [0AD26929], AccurateRip returned [3673B51F]
Copy OK

Track 10

Filename C:\Users\Frank\Music\Ripped Albums\Syris - Unseen Forces (1998) Flac Level 8\Syris - 10 - Solitary War.wav

Pre-gap length 0:00:01.98

Peak level 100.0 %
Track quality 100.0 %
Test CRC 7E426536
Copy CRC 7E426536
Cannot be verified as accurate (confidence 1) [219DA0E0], AccurateRip returned [EB36B952]
Copy OK

Track 11

Filename C:\Users\Frank\Music\Ripped Albums\Syris - Unseen Forces (1998) Flac Level 8\Syris - 11 - Beautiful Lies And The Ugly Truth.wav

Pre-gap length 0:00:02.00

Peak level 100.0 %
Track quality 100.0 %
Test CRC 54F60A42
Copy CRC 54F60A42
Cannot be verified as accurate (confidence 1) [8DF978C5], AccurateRip returned [144B6ACA]
Copy OK


No tracks could be verified as accurate
You may have a different pressing from the one(s) in the database

No errors occurred

End of status report


===================================DOWNLOAD========================================
Syris 1998 Unseen Forces.rar

_________________
Image
Image


Last edited by Glot on 06 Jan 2011, edited 1 time in total.

Top
 Profile  
 
 
PostPosted: 06 Jan 2011 
Работнечег
User avatar
Joined: 28 Aug 2007
Posts: 5387
Lоcаtion: г. Москва
Age: 29
Name: Дима
Полторы недели назад держал в руках диск, надо было рипнуть чтоли...теперь качать придёться! Спасибо! :thanx:


Top
 Profile E-mail  
 
 
PostPosted: 07 Jan 2011 
адын фелософъ прокметолу
User avatar
Joined: 22 Oct 2009
Posts: 2675
Lоcаtion: Сочи
Age: 41
Name: Сергей
Спасибо,утяну :thanx:

_________________
А теперь ... клоунов и стриптизёрш!


Top
 Profile E-mail  
 
 
PostPosted: 03 May 2012 
адын фелософъ прокметолу
User avatar
Joined: 22 Oct 2009
Posts: 2675
Lоcаtion: Сочи
Age: 41
Name: Сергей
перезалейте пожалуйста

_________________
А теперь ... клоунов и стриптизёрш!


Top
 Profile E-mail  
 
 
PostPosted: 03 May 2012 
Работнечег
User avatar
Joined: 28 Aug 2007
Posts: 5387
Lоcаtion: г. Москва
Age: 29
Name: Дима
Попробуй отсюда утянуть, токо зарегиться надо
http://forum.darksage.ru/forum/80-11048-1


Top
 Profile E-mail  
 
 
PostPosted: 03 May 2012 
Хиппей (support team)
User avatar
Joined: 30 Jul 2007
Posts: 105197
Lоcаtion: Киев (Kyiv, UA)
Age: 45
Name: Andrey
Димка, там на Меге были ссылки.
Попрошу Серёгу перелить позже, или у себя поищу.

_________________


Top
 Profile E-mail  
 
 
PostPosted: 03 May 2012 
Работнечег
User avatar
Joined: 28 Aug 2007
Posts: 5387
Lоcаtion: г. Москва
Age: 29
Name: Дима
Серегу я думаю ты точно не попросишь :crazy:


Top
 Profile E-mail  
 
 
PostPosted: 03 May 2012 
Хиппей (support team)
User avatar
Joined: 30 Jul 2007
Posts: 105197
Lоcаtion: Киев (Kyiv, UA)
Age: 45
Name: Andrey
Чего не попрошу?
Если не найду у себя, то спрошу. Но, понятно, что не сейчас и сразу.

_________________


Top
 Profile E-mail  
 
 
PostPosted: 03 May 2012 
Хиппей (support team)
User avatar
Joined: 30 Jul 2007
Posts: 105197
Lоcаtion: Киев (Kyiv, UA)
Age: 45
Name: Andrey
Ыыы, я про labanov, если что :crazy:

_________________


Top
 Profile E-mail  
 
 
PostPosted: 03 May 2012 
Работнечег
User avatar
Joined: 28 Aug 2007
Posts: 5387
Lоcаtion: г. Москва
Age: 29
Name: Дима
Scatterbrain wrote:
Ыыы, я про labanov, если что :crazy:

я думал, ты мож про wizard'a :crazy:


Top
 Profile E-mail  
 
 
PostPosted: 03 May 2012 
Прокъмитолист
User avatar
Joined: 12 Aug 2007
Posts: 6421
Lоcаtion: Санктъ-Петербуркъ
Age: 50
Name: Олекъ
можете ослом мой рип качнуть (смотрите в подписи). или я позже могу залить

_________________
прокъметол - это музыко, от которово есть прок (ы)


Top
 Profile  
 
 
PostPosted: 06 May 2012 
Хиппей (support team)
User avatar
Joined: 30 Jul 2007
Posts: 105197
Lоcаtion: Киев (Kyiv, UA)
Age: 45
Name: Andrey
Спасибо, могём :true:

_________________


Top
 Profile E-mail  
 
 
PostPosted: 06 May 2012 
Хиппей (support team)
User avatar
Joined: 30 Jul 2007
Posts: 105197
Lоcаtion: Киев (Kyiv, UA)
Age: 45
Name: Andrey
Image

mirror: MiltiUp l Narod

Thanx to spiralarch from MMT :thanx:


log
Exact Audio Copy V1.0 beta 1 from 15. November 2010

EAC extraction logfile from 18. May 2011, 15:59

Syris / Unseen Forces (1999)

Used drive : Optiarc DVD RW AD-7240S Adapter: 2 ID: 0

Read mode : Secure
Utilize accurate stream : Yes
Defeat audio cache : Yes
Make use of C2 pointers : No

Read offset correction : 48
Overread into Lead-In and Lead-Out : No
Fill up missing offset samples with silence : Yes
Delete leading and trailing silent blocks : No
Null samples used in CRC calculations : Yes
Used interface : Native Win32 interface for Win NT & 2000

Used output format : Internal WAV Routines
Sample format : 44.100 Hz; 16 Bit; Stereo


TOC of the extracted CD

Track | Start | Length | Start sector | End sector
---------------------------------------------------------
1 | 0:00.00 | 3:58.70 | 0 | 17919
2 | 3:58.70 | 4:54.09 | 17920 | 39978
3 | 8:53.04 | 4:31.12 | 39979 | 60315
4 | 13:24.16 | 4:36.37 | 60316 | 81052
5 | 18:00.53 | 5:50.32 | 81053 | 107334
6 | 23:51.10 | 4:47.21 | 107335 | 128880
7 | 28:38.31 | 3:25.64 | 128881 | 144319
8 | 32:04.20 | 5:06.59 | 144320 | 167328
9 | 37:11.04 | 5:40.42 | 167329 | 192870
10 | 42:51.46 | 6:08.22 | 192871 | 220492
11 | 48:59.68 | 4:26.12 | 220493 | 240454


Range status and errors

Selected range

Filename D:\spiralarch\Syris - Unseen Forces (1999).wav

Peak level 100.0 %
Extraction speed 0.3 X
Range quality 99.9 %
Copy CRC 7BC48AB9
Copy OK

No errors occurred


AccurateRip summary

Track 1 not present in database
Track 2 not present in database
Track 3 not present in database
Track 4 not present in database
Track 5 not present in database
Track 6 not present in database
Track 7 not present in database
Track 8 not present in database
Track 9 not present in database
Track 10 not present in database
Track 11 not present in database

None of the tracks are present in the AccurateRip database

End of status report

==== Log checksum F3020BE1FDAD37A604E7A5D0B5FE7894EE37580A7B4F65B583AC4746FFDF5F3D ====

cue
REM GENRE Metal
REM DATE 1998
REM DISCID 800C860B
REM COMMENT "ExactAudioCopy v1.0b1"
PERFORMER "Syris"
TITLE "Unseen Forces (1999)"
FILE "Syris - Unseen Forces (1999).wav" WAVE
TRACK 01 AUDIO
TITLE "Captured"
PERFORMER "Syris"
INDEX 01 00:00:00
TRACK 02 AUDIO
TITLE "Last Reign"
PERFORMER "Syris"
INDEX 00 03:56:70
INDEX 01 03:58:70
TRACK 03 AUDIO
TITLE "Tonic Sounds"
PERFORMER "Syris"
INDEX 00 08:51:04
INDEX 01 08:53:04
TRACK 04 AUDIO
TITLE "Unseen Forces"
PERFORMER "Syris"
INDEX 00 13:22:16
INDEX 01 13:24:16
TRACK 05 AUDIO
TITLE "Beautiful Lies And The Ugly Truth"
PERFORMER "Syris"
INDEX 00 17:58:53
INDEX 01 18:00:53
TRACK 06 AUDIO
TITLE "Head Rush"
PERFORMER "Syris"
INDEX 00 23:49:11
INDEX 01 23:51:10
TRACK 07 AUDIO
TITLE "Spreading The Lead"
PERFORMER "Syris"
INDEX 00 28:36:32
INDEX 01 28:38:31
TRACK 08 AUDIO
TITLE "Angry At The World"
PERFORMER "Syris"
INDEX 00 32:02:20
INDEX 01 32:04:20
TRACK 09 AUDIO
TITLE "Broken Soul"
PERFORMER "Syris"
INDEX 00 37:09:04
INDEX 01 37:11:04
TRACK 10 AUDIO
TITLE "Solitary War"
PERFORMER "Syris"
INDEX 00 42:49:47
INDEX 01 42:51:46
TRACK 11 AUDIO
TITLE "Intruder"
PERFORMER "Syris"
INDEX 00 48:57:69
INDEX 01 48:59:68

spectrum
Image

_________________


Top
 Profile E-mail  
 
 
PostPosted: 06 May 2012 
адын фелософъ прокметолу
User avatar
Joined: 22 Oct 2009
Posts: 2675
Lоcаtion: Сочи
Age: 41
Name: Сергей
:thanx:

_________________
А теперь ... клоунов и стриптизёрш!


Top
 Profile E-mail  
 
Display posts from previous:  Sort by  
Post new topic Reply to topic  [ 14 posts ] 

All times are UTC + 3 hours


Who is online

Users browsing this forum: No registered users and 3 guests


You cannot post new topics in this forum
You cannot reply to topics in this forum
You cannot edit your posts in this forum
You cannot delete your posts in this forum
You cannot post attachments in this forum

Search for:
Яндекс.Метрика
Powered by phpBB © 2000, 2002, 2005, 2007 phpBB Group