\m/ 80's metal \m/

Информационно-аналитический форум "80 см пыли" (In Search We Trust) "У нас никто никуда не спешит"
Железнодорожная биржа - RailAgent
It is currently 22 Jul 2018

All times are UTC + 3 hours

Spoiler
Chat - temporary registration for foreign users (please leave your application here)







Post new topic Reply to topic  [ 3 posts ] 
Author Message
 
PostPosted: 06 Jan 2011 
труъ антисионист
User avatar
Joined: 01 Aug 2007
Posts: 4541
Lоcаtion: Откуда и большинство из нас
Age: 37
Name: Дядя Вова
Image
Группа: Syris
Альбом: Syris
Год: 1995
Лейбл: Shark Records
Стиль: Power/Progressive Metal
Страна: USA
Формат: Flac
Размер: 300 Mb

******************************************************************************

Line Up:

Nick Bucci - vocals
Jason Schultz - guitar
Scott Payne - guitar
Marty Malcolm - bass
Sean Brown - drums


Tracks:
1. Millenium 04:23
2. Aftermath 02:58
3. Blind Fate 03:42
4. Eternity 05:13
5. Witch of Eden 04:48
6. Victims of Innocence 03:56
7. Armageddon / Is Anyone Listening? 04:33
8. Technologies Calling 03:55
9. Carpedium 04:39
10. Keepers of the Gate 03:44


Total playing time 41:55

LOG
Exact Audio Copy V0.99 prebeta 5 from 4. May 2009

EAC extraction logfile from 12. September 2010, 12:22

Syris / Syris

Used drive : TSSTcorp - CDDVDW TS-L633A AS00 Adapter: 2 ID: 1

Read mode : Secure
Utilize accurate stream : Yes
Defeat audio cache : Yes
Make use of C2 pointers : No

Read offset correction : 6
Overread into Lead-In and Lead-Out : No
Fill up missing offset samples with silence : Yes
Delete leading and trailing silent blocks : No
Null samples used in CRC calculations : Yes
Used interface : Native Win32 interface for Win NT & 2000

Used output format : Internal WAV Routines
Sample format : 44.100 Hz; 16 Bit; Stereo


TOC of the extracted CD

Track | Start | Length | Start sector | End sector
---------------------------------------------------------
1 | 0:00.00 | 4:23.35 | 0 | 19759
2 | 4:23.35 | 2:58.35 | 19760 | 33144
3 | 7:21.70 | 3:42.07 | 33145 | 49801
4 | 11:04.02 | 5:13.23 | 49802 | 73299
5 | 16:17.25 | 4:48.40 | 73300 | 94939
6 | 21:05.65 | 3:56.12 | 94940 | 112651
7 | 25:02.02 | 4:33.20 | 112652 | 133146
8 | 29:35.22 | 3:54.73 | 133147 | 150769
9 | 33:30.20 | 4:38.65 | 150770 | 171684
10 | 38:09.10 | 3:43.65 | 171685 | 188474


Range status and errors

Selected range

Filename D:\LOSSLESS\ОСТРОВ\Syris 1995 - Syris\Syris - Syris.wav

Peak level 99.5 %
Range quality 100.0 %
Test CRC ECB6CF67
Copy CRC ECB6CF67
Copy OK

No errors occurred


AccurateRip summary

Track 1 accurately ripped (confidence 4) [67D56F3D]
Track 2 accurately ripped (confidence 4) [D7DAA98C]
Track 3 accurately ripped (confidence 4) [E8AE05D6]
Track 4 accurately ripped (confidence 4) [B40A49F1]
Track 5 accurately ripped (confidence 4) [F984BF40]
Track 6 accurately ripped (confidence 4) [3B297EAF]
Track 7 accurately ripped (confidence 4) [313C9415]
Track 8 accurately ripped (confidence 4) [589BF6EC]
Track 9 accurately ripped (confidence 4) [E02A33ED]
Track 10 accurately ripped (confidence 4) [A3773462]

All tracks accurately ripped

End of status report


===================================DOWNLOAD========================================
Syris 1995 Syris.rar

_________________
Image
Image


Top
 Profile  
 
 
PostPosted: 06 Jan 2011 
Работнечег
User avatar
Joined: 28 Aug 2007
Posts: 5387
Lоcаtion: г. Москва
Age: 29
Name: Дима
Спасибо, Вов! :thanx:


Top
 Profile E-mail  
 
 
PostPosted: 07 Jan 2011 
адын фелософъ прокметолу
User avatar
Joined: 22 Oct 2009
Posts: 2675
Lоcаtion: Сочи
Age: 41
Name: Сергей
огромное спасибо :thanx: :true:

_________________
А теперь ... клоунов и стриптизёрш!


Top
 Profile E-mail  
 
Display posts from previous:  Sort by  
Post new topic Reply to topic  [ 3 posts ] 

All times are UTC + 3 hours


Who is online

Users browsing this forum: No registered users and 1 guest


You cannot post new topics in this forum
You cannot reply to topics in this forum
You cannot edit your posts in this forum
You cannot delete your posts in this forum
You cannot post attachments in this forum

Search for:
Яндекс.Метрика
Powered by phpBB © 2000, 2002, 2005, 2007 phpBB Group