\m/ 80's metal \m/

Информационно-аналитический форум "80 см пыли" (In Search We Trust) "У нас никто никуда не спешит"
Me For You - http://me-4u.com
It is currently 17 Nov 2018

All times are UTC + 3 hours

Spoiler
Chat - temporary registration for foreign users (please leave your application here)







Post new topic Reply to topic  [ 17 posts ] 
Author Message
 
PostPosted: 03 Jan 2011 
А может смените мне статус?..
Joined: 12 Dec 2008
Posts: 988
Lоcаtion: BULGARIA
Age: 40
Name: DIMITЪR
S.D.I. - Sign of the Wicked

Image

Line-up:
Rainhard Kruse - vocals, bass
Ralf Maunert - drums
Franck Tiesing - guitar

01. Coming Again
02. Sign Of The Wicked
03. Megamosh
04. Alcohol
05. Quick Shot
06. Always Youth
07. Long Way From Home
08. Killer's Confession
09. Fight
10. One More Time
11. Prince On A White Horse
12. Ruling The World
13. Shut Up
*************
Thanks!!!


Top
 Profile  
 
 
PostPosted: 03 Jan 2011 
Я набрал 1000 сообщений!
User avatar
Joined: 25 Dec 2008
Posts: 1545
Age: 43
Name: Павел
Димитар,ты с rutracker.org(крупнейший российский торрент-трекер) качаешь что-нибудь?
Там есть такой альбом.


Top
 Profile  
 
 
PostPosted: 03 Jan 2011 
А может смените мне статус?..
Joined: 12 Dec 2008
Posts: 988
Lоcаtion: BULGARIA
Age: 40
Name: DIMITЪR
Там сийд нет :dash:


Top
 Profile  
 
 
PostPosted: 03 Jan 2011 
Хиппей (support team)
User avatar
Joined: 30 Jul 2007
Posts: 108071
Lоcаtion: Киев (Kyiv, UA)
Age: 45
Name: Andrey
http://rutracker.org/forum/viewtopic.php?t=1299858


Image

_________________


Top
 Profile E-mail  
 
 
PostPosted: 03 Jan 2011 
А может смените мне статус?..
Joined: 12 Dec 2008
Posts: 988
Lоcаtion: BULGARIA
Age: 40
Name: DIMITЪR
Спасибо, скачал!!!!!


Top
 Profile  
 
 
PostPosted: 03 Jan 2011 
Thrasher
User avatar
Joined: 07 Oct 2007
Posts: 2756
Lоcаtion: Russia, Moscow
Age: 34
Name: Drunk & Evil
http://www.megaupload.com/?d=PV3NBXCF

_________________
ВОДКА, БАБЫ И БЛЮЗ / 40° till death... :bodun:
One time we saw some hookers, but when we got closer, we realised it was Mötley Crüe. ©


Top
 Profile  
 
 
PostPosted: 03 Jan 2011 
Хиппей (support team)
User avatar
Joined: 30 Jul 2007
Posts: 108071
Lоcаtion: Киев (Kyiv, UA)
Age: 45
Name: Andrey
:thanx:
mirror: http://www.multiupload.com/II07X345MG

Отслушайте, плиз, кто скачал альбомы - дефектов там точно нету? А то этот лэйбл не внушает доверия :nea:

_________________


Top
 Profile E-mail  
 
 
PostPosted: 06 Jan 2011 
Thrasher
User avatar
Joined: 07 Oct 2007
Posts: 2756
Lоcаtion: Russia, Moscow
Age: 34
Name: Drunk & Evil
еще с рутрахера скачал без бонусо

первые две песнислеплены

http://narod.yandex.ru/disk/2817280001/ ... Wicked.rar

_________________
ВОДКА, БАБЫ И БЛЮЗ / 40° till death... :bodun:
One time we saw some hookers, but when we got closer, we realised it was Mötley Crüe. ©


Top
 Profile  
 
 
PostPosted: 24 Jul 2018 
А может смените мне статус?..
Joined: 03 Jul 2009
Posts: 801
Lоcаtion: Serbia
Name: Laki
Was this Scratch version? I need it.


Top
 Profile E-mail  
 
 
PostPosted: 24 Jul 2018 
А может смените мне статус?..
User avatar
Joined: 17 Jan 2008
Posts: 869
Lоcаtion: Пенза
Age: 41
Name: Денис
:lob:


Top
 Profile  
 
 
PostPosted: 24 Jul 2018 
Хиппей (support team)
User avatar
Joined: 30 Jul 2007
Posts: 108071
Lоcаtion: Киев (Kyiv, UA)
Age: 45
Name: Andrey
Занятная тема. В смысле - топик :scratch:

_________________


Top
 Profile E-mail  
 
 
PostPosted: 24 Jul 2018 
Хиппей (support team)
User avatar
Joined: 30 Jul 2007
Posts: 108071
Lоcаtion: Киев (Kyiv, UA)
Age: 45
Name: Andrey
Ага, качаем :arrow: https://rutracker.org/forum/viewtopic.php?t=4562432

Image Image

S.D.I. - 1987 - Sign Of The Wicked [wv] - vinyl

mirror: Uloz l Drop l M-Cloud l Narod

cue
PERFORMER "S.D.I."
TITLE "Sign Of The Wicked"
FILE "S.D.I.-Sign Of The Wicked-1987.wv" WAVE
TRACK 01 AUDIO
TITLE "Comin' Again"
INDEX 01 00:00:00
TRACK 02 AUDIO
TITLE "Sign Of The Wicked"
INDEX 01 06:02:00
TRACK 03 AUDIO
TITLE "Megamosh"
INDEX 01 09:22:00
TRACK 04 AUDIO
TITLE "Alcohol"
INDEX 01 11:40:00
TRACK 05 AUDIO
TITLE "Quick Shot"
INDEX 01 15:15:00
TRACK 06 AUDIO
TITLE "Always Youth"
INDEX 01 18:41:00
TRACK 07 AUDIO
TITLE "Long Way From Home"
INDEX 01 21:45:00
TRACK 08 AUDIO
TITLE "Killer's Confession"
INDEX 01 24:40:00
TRACK 09 AUDIO
TITLE "Fight"
INDEX 01 28:34:00

_________________


Top
 Profile E-mail  
 
 
PostPosted: 24 Jul 2018 
Хиппей (support team)
User avatar
Joined: 30 Jul 2007
Posts: 108071
Lоcаtion: Киев (Kyiv, UA)
Age: 45
Name: Andrey
Спасибо, скачал!!!!!

Димитар, перезалей, пожалуйста, тот рип :thanx:
Или он плохо звучит? :lloo:

_________________


Top
 Profile E-mail  
 
 
PostPosted: 25 Jul 2018 
Хиппей (support team)
User avatar
Joined: 30 Jul 2007
Posts: 108071
Lоcаtion: Киев (Kyiv, UA)
Age: 45
Name: Andrey
Quote:
S.D.I. - 1987 - Sign Of The Wicked

9/10

Альбом-бонмба. Но одна вещь всё ж проходная есть - "Comin' Again" :pardon:

_________________


Top
 Profile E-mail  
 
 
PostPosted: 25 Jul 2018 
Я набрал 1000 сообщений!
Joined: 09 Jul 2008
Posts: 2459
Age: 45
Name: Сергей
первый раз чтоль услышал?


Top
 Profile  
 
 
PostPosted: 25 Jul 2018 
Хиппей (support team)
User avatar
Joined: 30 Jul 2007
Posts: 108071
Lоcаtion: Киев (Kyiv, UA)
Age: 45
Name: Andrey
Не, одна из 10-ки любимых германских групп.

_________________


Top
 Profile E-mail  
 
 
PostPosted: 25 Jul 2018 
Хиппей (support team)
User avatar
Joined: 30 Jul 2007
Posts: 108071
Lоcаtion: Киев (Kyiv, UA)
Age: 45
Name: Andrey
А слушаю-переслушиваю я все альбомы, которые находятся на форуме со многими целями:
1. Чтоб сравнить юношеские впечатления о них и нонешние.
2. Чтобы внести в список топов личных. Или наоборот, вычеркнуть.
3. Для того, чтобы ещё более внимательно послушать музыку и порассматривать картинки. А вдруг найду здесь что-то для тех топиков-тем, которые являются собирательными на форуме (колокольчики, гром, сирены, русская речь, лоси и шахматы на обложах, ухи, политики, прочие хоботы). А то порой в 80-х я не только и состав групп не знал, но и обложек ни разу не видел.
Поэтому и занимаюсь переслушиванием и пересматриванием.
Надеюсь, высказался теперь более внятно? :vic:

_________________


Top
 Profile E-mail  
 
Display posts from previous:  Sort by  
Post new topic Reply to topic  [ 17 posts ] 

All times are UTC + 3 hours


Who is online

Users browsing this forum: No registered users and 3 guests


You cannot post new topics in this forum
You cannot reply to topics in this forum
You cannot edit your posts in this forum
You cannot delete your posts in this forum
You cannot post attachments in this forum

Search for:
Яндекс.Метрика
Powered by phpBB © 2000, 2002, 2005, 2007 phpBB Group