\m/ 80's metal \m/

Информационно-аналитический форум "80 см пыли" (In Search We Trust) "У нас никто никуда не спешит"
Me For You - http://me-4u.com
It is currently 20 Nov 2018

All times are UTC + 3 hours

Spoiler
Chat - temporary registration for foreign users (please leave your application here)







Post new topic Reply to topic  [ 5 posts ] 
Author Message
 
PostPosted: 09 Nov 2010 
Генеральный thrasher
User avatar
Joined: 03 Oct 2008
Posts: 3507
Lоcаtion: Ханты-Мансийский АО
Age: 43
Name: Сергей
Image

Year:1995
Style:Technical Thrash Metal
Country:U.S.A
Audio:Flac+Cue+Log+Covers
Size:313Mb
Source:my CD
Label:Energy Records

Line-Up:
Brad Divens - vocals & bass
Jay Abbene - guitar
Terry Carter - guitar
Jamie Miller - drums

Tracklist:
1. Undecided 03:16
2. Strip 04:12
3. Cold 04:47
4. Taken Apart 03:35
5. My Fault? 04:14
6. Thrown Down 03:09
7. Inside a Scream 05:28
8. Needles 04:57
9. Me Myself I 04:18
10. Know More 01:15
11. Human Distortion 05:00

Cue
REM DATE 1995
REM DISCID 780A650A
REM COMMENT "ExactAudioCopy v0.99pb4"
PERFORMER "Souls At Zero"
TITLE "A Taste For The Perverse"
FILE "Souls At Zero - A Taste For The Perverse.flac" WAVE
TRACK 01 AUDIO
TITLE "Undecided"
PERFORMER "Souls At Zero"
INDEX 01 00:00:00
TRACK 02 AUDIO
TITLE "Strip"
PERFORMER "Souls At Zero"
INDEX 01 03:16:52
TRACK 03 AUDIO
TITLE "Cold"
PERFORMER "Souls At Zero"
INDEX 01 07:29:12
TRACK 04 AUDIO
TITLE "Taken Apart"
PERFORMER "Souls At Zero"
INDEX 00 12:16:30
INDEX 01 12:18:67
TRACK 05 AUDIO
TITLE "My Fault?"
PERFORMER "Souls At Zero"
INDEX 00 15:55:26
INDEX 01 15:56:20
TRACK 06 AUDIO
TITLE "Thrown Down"
PERFORMER "Souls At Zero"
INDEX 01 20:11:00
TRACK 07 AUDIO
TITLE "Inside A Scream"
PERFORMER "Souls At Zero"
INDEX 01 23:20:07
TRACK 08 AUDIO
TITLE "Needles"
PERFORMER "Souls At Zero"
INDEX 01 28:48:60
TRACK 09 AUDIO
TITLE "Me Myself I"
PERFORMER "Souls At Zero"
INDEX 00 33:45:55
INDEX 01 33:47:37
TRACK 10 AUDIO
TITLE "Know More"
PERFORMER "Souls At Zero"
INDEX 01 38:05:62


Log
Exact Audio Copy V0.99 prebeta 4 from 23. January 2008

Отчёт EAC об извлечении, выполненном 6. ноября 2010, 12:03

Souls At Zero / A Taste For The Perverse

Дисковод: TSSTcorpCDDVDW SH-S202N Adapter: 0 ID: 1

Режим чтения : Достоверность
Использование точного потока : Да
Отключение кэша аудио : Да
Использование указателей C2 : Нет

Коррекция смещения при чтении : 6
Способность читать области Lead-in и Lead-out : Нет
Заполнение пропущенных сэмплов тишиной : Да
Удаление блоков с тишиной в начале и конце : Нет
При вычислениях CRC использовались нулевые сэмплы : Да
Интерфейс : Установленный внешний ASPI-интерфейс

Выходной формат : Пользовательский кодировщик
Выбранный битрейт : 768 kBit/s
Качество : Высокий
Добавление ID3-тэга : Нет
Утилита сжатия : C:\Program Files\Exact Audio Copy\FLAC\FLAC.EXE
Дополнительные параметры : -6 -V -T "ARTIST=%a" -T "TITLE=%t" -T "ALBUM=%g" -T "DATE=%y" -T "TRACKNUMBER=%n" -T "GENRE=%m" -T "COMMENT=%e" %s -o %d


TOC извлечённого CD

Трек | Старт | Длительность | Начальный сектор | Конечный сектор
---------------------------------------------------------------------
1 | 0:00.00 | 3:16.52 | 0 | 14751
2 | 3:16.52 | 4:12.35 | 14752 | 33686
3 | 7:29.12 | 4:49.55 | 33687 | 55416
4 | 12:18.67 | 3:37.28 | 55417 | 71719
5 | 15:56.20 | 4:14.55 | 71720 | 90824
6 | 20:11.00 | 3:09.07 | 90825 | 105006
7 | 23:20.07 | 5:28.53 | 105007 | 129659
8 | 28:48.60 | 4:58.52 | 129660 | 152061
9 | 33:47.37 | 4:18.25 | 152062 | 171436
10 | 38:05.62 | 6:15.38 | 171437 | 199599


Характеристики диапазона извлечения и сообщения об ошибках

Выбранный диапазон

Имя файла F:\Лоси\S\Souls At Zero - A Taste For The Perverse.wav

Пиковый уровень 100.0 %
Качество диапазона 100.0 %
CRC копии E99A6DC6
Копирование... OK

Ошибок не произошло


AccurateRip: сводка

Трек 1 точное извлечение (доверие 1) [E2C0721A]
Трек 2 точное извлечение (доверие 1) [D29BD052]
Трек 3 точное извлечение (доверие 1) [FCC26CD4]
Трек 4 точное извлечение (доверие 1) [9DCB3598]
Трек 5 точное извлечение (доверие 1) [5477C667]
Трек 6 точное извлечение (доверие 1) [158B1457]
Трек 7 точное извлечение (доверие 1) [1F49E6D1]
Трек 8 точное извлечение (доверие 1) [C15E3D6C]
Трек 9 точное извлечение (доверие 1) [58290944]
Трек 10 точное извлечение (доверие 1) [A1ADCCC0]

Все треки извлечены точно

Конец отчёта


MEGAUPLOAD


Top
 Profile  
 
 
PostPosted: 09 Nov 2010 
Генеральный thrasher
User avatar
Joined: 03 Oct 2008
Posts: 3507
Lоcаtion: Ханты-Мансийский АО
Age: 43
Name: Сергей
В трэклисте 11 песен.Однако cue-файл показывает лишь 10.Последней значится Know More.Длительность трэка 06:16.Получается две в одной...? :vic: Непонятный какой-то прикол....


Top
 Profile  
 
 
PostPosted: 09 Nov 2010 
Хиппей (support team)
User avatar
Joined: 30 Jul 2007
Posts: 108205
Lоcаtion: Киев (Kyiv, UA)
Age: 45
Name: Andrey
:thanx: :true:

_________________


Top
 Profile E-mail  
 
 
PostPosted: 02 Aug 2011 
ТрэшЭрос
User avatar
Joined: 18 Jul 2011
Posts: 2300
Lоcаtion: Гулькевичи
Age: 43
Name: Александр
:thanx:

_________________
Thrash no trash!!!


Top
 Profile E-mail  
 
 
PostPosted: 04 Oct 2013 
Хиппей (support team)
User avatar
Joined: 30 Jul 2007
Posts: 108205
Lоcаtion: Киев (Kyiv, UA)
Age: 45
Name: Andrey
mirror: Narod

_________________


Top
 Profile E-mail  
 
Display posts from previous:  Sort by  
Post new topic Reply to topic  [ 5 posts ] 

All times are UTC + 3 hours


Who is online

Users browsing this forum: No registered users and 2 guests


You cannot post new topics in this forum
You cannot reply to topics in this forum
You cannot edit your posts in this forum
You cannot delete your posts in this forum
You cannot post attachments in this forum

Search for:
Яндекс.Метрика
Powered by phpBB © 2000, 2002, 2005, 2007 phpBB Group