\m/ 80's metal \m/

Информационно-аналитический форум "80 см пыли" (In Search We Trust) "У нас никто никуда не спешит"
Железнодорожная биржа - RailAgent
It is currently 22 Jul 2018

All times are UTC + 3 hours

Spoiler
Chat - temporary registration for foreign users (please leave your application here)







Post new topic Reply to topic  [ 3 posts ] 
Author Message
 
PostPosted: 09 Nov 2010 
Генеральный thrasher
User avatar
Joined: 03 Oct 2008
Posts: 3408
Lоcаtion: Ханты-Мансийский АО
Age: 43
Name: Сергей
Image
Year:1993
Style:Technical Thrash Metal
Country:U.S.A
Audio:Flac+Cue+Log+Covers
Size:455Mb
Source:my CD
Label:Energy Records

Line-Up:
Brad Divens - vocals & bass
Jay Abbene - guitar
Terry Carter - guitar
Jamie Miller - drums

Tracklist:
1. Frustration 04:37
2. Never 05:22
3. Look 04:16
4. Hardline 04:40
5. Lost 06:19
6. Checkin' Out 04:20
7. Souls at Zero 05:37
8. Grey World 04:28
9. Not You 06:10
10. Crowded Head 04:35
11. Welcome to the 90s 04:18
12. Mind's Eye 08:34

Cue
REM GENRE Metal
REM DATE 1993
REM DISCID 950EE30C
REM COMMENT "ExactAudioCopy v0.99pb4"
PERFORMER "Souls At Zero"
TITLE "Souls At Zero"
FILE "Souls At Zero - Souls At Zero.flac" WAVE
TRACK 01 AUDIO
TITLE "Frustration"
PERFORMER "Souls At Zero"
INDEX 00 00:00:00
INDEX 01 00:00:05
TRACK 02 AUDIO
TITLE "Never"
PERFORMER "Souls At Zero"
INDEX 00 04:38:23
INDEX 01 04:38:52
TRACK 03 AUDIO
TITLE "Look"
PERFORMER "Souls At Zero"
INDEX 00 10:01:25
INDEX 01 10:01:47
TRACK 04 AUDIO
TITLE "Hardline"
PERFORMER "Souls At Zero"
INDEX 00 14:18:45
INDEX 01 14:18:67
TRACK 05 AUDIO
TITLE "Lost"
PERFORMER "Souls At Zero"
INDEX 00 18:59:63
INDEX 01 18:59:67
TRACK 06 AUDIO
TITLE "Checkin' Out"
PERFORMER "Souls At Zero"
INDEX 00 25:20:01
INDEX 01 25:20:12
TRACK 07 AUDIO
TITLE "Souls At Zero"
PERFORMER "Souls At Zero"
INDEX 00 29:40:63
INDEX 01 29:40:65
TRACK 08 AUDIO
TITLE "Grey World"
PERFORMER "Souls At Zero"
INDEX 00 35:18:25
INDEX 01 35:19:42
TRACK 09 AUDIO
TITLE "Not You"
PERFORMER "Souls At Zero"
INDEX 01 39:47:67
TRACK 10 AUDIO
TITLE "Crowded Head"
PERFORMER "Souls At Zero"
INDEX 00 45:58:50
INDEX 01 45:59:35
TRACK 11 AUDIO
TITLE "Welcome To The 90s"
PERFORMER "Souls At Zero"
INDEX 00 50:35:63
INDEX 01 50:35:65
TRACK 12 AUDIO
TITLE "Mind's Eye"
PERFORMER "Souls At Zero"
INDEX 01 54:56:62


Log
Exact Audio Copy V0.99 prebeta 4 from 23. January 2008

Отчёт EAC об извлечении, выполненном 6. ноября 2010, 11:42

Souls At Zero / Souls At Zero

Дисковод: TSSTcorpCDDVDW SH-S202N Adapter: 0 ID: 1

Режим чтения : Достоверность
Использование точного потока : Да
Отключение кэша аудио : Да
Использование указателей C2 : Нет

Коррекция смещения при чтении : 6
Способность читать области Lead-in и Lead-out : Нет
Заполнение пропущенных сэмплов тишиной : Да
Удаление блоков с тишиной в начале и конце : Нет
При вычислениях CRC использовались нулевые сэмплы : Да
Интерфейс : Установленный внешний ASPI-интерфейс

Выходной формат : Пользовательский кодировщик
Выбранный битрейт : 768 kBit/s
Качество : Высокий
Добавление ID3-тэга : Нет
Утилита сжатия : C:\Program Files\Exact Audio Copy\FLAC\FLAC.EXE
Дополнительные параметры : -6 -V -T "ARTIST=%a" -T "TITLE=%t" -T "ALBUM=%g" -T "DATE=%y" -T "TRACKNUMBER=%n" -T "GENRE=%m" -T "COMMENT=%e" %s -o %d


TOC извлечённого CD

Трек | Старт | Длительность | Начальный сектор | Конечный сектор
---------------------------------------------------------------------
1 | 0:00.05 | 4:38.47 | 5 | 20901
2 | 4:38.52 | 5:22.70 | 20902 | 45121
3 | 10:01.47 | 4:17.20 | 45122 | 64416
4 | 14:18.67 | 4:41.00 | 64417 | 85491
5 | 18:59.67 | 6:20.20 | 85492 | 114011
6 | 25:20.12 | 4:20.53 | 114012 | 133564
7 | 29:40.65 | 5:38.52 | 133565 | 158966
8 | 35:19.42 | 4:28.25 | 158967 | 179091
9 | 39:47.67 | 6:11.43 | 179092 | 206959
10 | 45:59.35 | 4:36.30 | 206960 | 227689
11 | 50:35.65 | 4:20.72 | 227690 | 247261
12 | 54:56.62 | 8:34.40 | 247262 | 285851


Характеристики диапазона извлечения и сообщения об ошибках

Выбранный диапазон

Имя файла F:\Лоси\S\Souls At Zero - Souls At Zero.wav

Пиковый уровень 100.0 %
Качество диапазона 100.0 %
CRC копии 20C15AED
Копирование... OK

Ошибок не произошло


AccurateRip: сводка

Трек 1 точное извлечение (доверие 4) [36EE82C3]
Трек 2 точное извлечение (доверие 4) [F5B3EC6E]
Трек 3 точное извлечение (доверие 4) [FA9F8A11]
Трек 4 точное извлечение (доверие 4) [752C535C]
Трек 5 точное извлечение (доверие 4) [D0B12F57]
Трек 6 точное извлечение (доверие 4) [9D24A5B2]
Трек 7 точное извлечение (доверие 4) [845FD10B]
Трек 8 точное извлечение (доверие 4) [1CD31FEA]
Трек 9 точное извлечение (доверие 4) [7CEDED76]
Трек 10 точное извлечение (доверие 4) [9EB0942C]
Трек 11 точное извлечение (доверие 4) [EECD0CDE]
Трек 12 точное извлечение (доверие 4) [9590316B]

Все треки извлечены точно

Конец отчёта


MEGAUPLOAD


Top
 Profile  
 
 
PostPosted: 09 Nov 2010 
Хиппей (support team)
User avatar
Joined: 30 Jul 2007
Posts: 105206
Lоcаtion: Киев (Kyiv, UA)
Age: 45
Name: Andrey
:thanx: :true:

_________________


Top
 Profile E-mail  
 
 
PostPosted: 02 Aug 2011 
ТрэшЭрос
User avatar
Joined: 18 Jul 2011
Posts: 2296
Lоcаtion: Гулькевичи
Age: 43
Name: Александр
:thanx:

_________________
Thrash no trash!!!


Top
 Profile E-mail  
 
Display posts from previous:  Sort by  
Post new topic Reply to topic  [ 3 posts ] 

All times are UTC + 3 hours


Who is online

Users browsing this forum: No registered users and 2 guests


You cannot post new topics in this forum
You cannot reply to topics in this forum
You cannot edit your posts in this forum
You cannot delete your posts in this forum
You cannot post attachments in this forum

Search for:
Яндекс.Метрика
Powered by phpBB © 2000, 2002, 2005, 2007 phpBB Group