\m/ 80's metal \m/

Информационно-аналитический форум "80 см пыли" (In Search We Trust) "У нас никто никуда не спешит"
Me For You - http://me-4u.com
It is currently 24 Sep 2018

All times are UTC + 3 hours

Spoiler
Chat - temporary registration for foreign users (please leave your application here)







Post new topic Reply to topic  [ 3 posts ] 
Author Message
 
PostPosted: 08 Nov 2010 
Old Time Rock`n`Roll
User avatar
Joined: 23 Jun 2008
Posts: 3354
Lоcаtion: г.Ульяновск
Age: 40
Name: Константин
Michael Stanley Band – Heartland (1980)

Image

Year: 1980
Style: AOR
Country: USA
Format: FLAC (tracks+log+cue) & мп3-320
Size: 338 Mb + 115 Mb

Tracklist
01. I'll Never Need Anyone More (Than I Need You Tonight)
02. Lover
03. Don't Stop The Music
04. He Can't Love You
05. Working Again
06. All I Ever Wanted
07. Say Goodbye
08. Hearts On Fire
09. Voodoo
10. Carolyn
11. Save A Little Piece For Me
12. He Can't Love You (Live)
13. Lover (Live)

TPT – 50:17

Line-Up
Michael Stanley - Lead & Backing Vocals, Electric & Acoustic Guitars, Percussion
Kevin Raleigh - Lead & Backing Vocals, Organ, Piano, Percussion
Michael Gismondi - Bass, Synthesizer
Gary Markasky - Lead Guitar
Bob Pelander - Piano, Organ, Electric Piano, Synthesizer, Orchestra Bells, Percussion, Vocals
Tommy Dobeck - Drums, Percussion

Album Credits:
Produced: Michael Stanley Band
Engineered: Arnie Rosenburg, Paul Schwartz
Mixed: Fred Mollin, Michael Verdick

Album Chart Position
USA # 86

Charting Singles:
He Can't Love You - USA # 33
Lover - USA # 68

Log
Exact Audio Copy V0.99 prebeta 4 from 23. January 2008

EAC extraction logfile from 22. September 2009, 21:16

Michael Stanley Band / Heartland

Used drive : ATAPI DVD D DH16D3P Adapter: 0 ID: 1

Read mode : Secure
Utilize accurate stream : Yes
Defeat audio cache : Yes
Make use of C2 pointers : No

Read offset correction : 6
Overread into Lead-In and Lead-Out : No
Fill up missing offset samples with silence : Yes
Delete leading and trailing silent blocks : No
Null samples used in CRC calculations : Yes
Used interface : Installed external ASPI interface
Gap handling : Appended to previous track

Used output format : User Defined Encoder
Selected bitrate : 768 kBit/s
Quality : High
Add ID3 tag : No
Command line compressor : C:\Program Files\Exact Audio Copy\FLAC\FLAC.EXE
Additional command line options : -6 -V -T "ARTIST=%a" -T "TITLE=%t" -T "ALBUM=%g" -T "DATE=%y" -T "TRACKNUMBER=%n" -T "GENRE=%m" -T "COMMENT=%e" %s -o %d


TOC of the extracted CD

Track | Start | Length | Start sector | End sector
---------------------------------------------------------
1 | 0:00.00 | 3:16.02 | 0 | 14701
2 | 3:16.02 | 4:52.65 | 14702 | 36666
3 | 8:08.67 | 3:38.30 | 36667 | 53046
4 | 11:47.22 | 3:37.33 | 53047 | 69354
5 | 15:24.55 | 3:56.57 | 69355 | 87111
6 | 19:21.37 | 3:11.08 | 87112 | 101444
7 | 22:32.45 | 3:27.27 | 101445 | 116996
8 | 25:59.72 | 2:49.55 | 116997 | 129726
9 | 28:49.52 | 4:31.65 | 129727 | 150116
10 | 33:21.42 | 3:02.30 | 150117 | 163796
11 | 36:23.72 | 3:19.10 | 163797 | 178731
12 | 39:43.07 | 5:52.68 | 178732 | 205199
13 | 45:36.00 | 4:41.25 | 205200 | 226299


Track 1

Filename E:\Music\Michael Stanley Band\Heartland\01 - I'll Never Need Anyone More.wav

Pre-gap length 0:00:02.00

Peak level 94.2 %
Track quality 100.0 %
Test CRC 33D54A0D
Copy CRC 33D54A0D
Accurately ripped (confidence 3) [104CFEEC]
Copy OK

Track 2

Filename E:\Music\Michael Stanley Band\Heartland\02 - Lover.wav

Pre-gap length 0:00:01.02

Peak level 94.2 %
Track quality 99.9 %
Test CRC 56DF9277
Copy CRC 56DF9277
Accurately ripped (confidence 3) [B2148F17]
Copy OK

Track 3

Filename E:\Music\Michael Stanley Band\Heartland\03 - Don't Stop the Music.wav

Peak level 94.2 %
Track quality 100.0 %
Test CRC 1BEF19BF
Copy CRC 1BEF19BF
Accurately ripped (confidence 3) [D2701D09]
Copy OK

Track 4

Filename E:\Music\Michael Stanley Band\Heartland\04 - He Can't Love You.wav

Pre-gap length 0:00:01.00

Peak level 94.3 %
Track quality 100.0 %
Test CRC 0A9A337D
Copy CRC 0A9A337D
Accurately ripped (confidence 3) [F2A7B92C]
Copy OK

Track 5

Filename E:\Music\Michael Stanley Band\Heartland\05 - Working Again.wav

Pre-gap length 0:00:00.97

Peak level 94.2 %
Track quality 99.9 %
Test CRC AC69CF71
Copy CRC AC69CF71
Accurately ripped (confidence 3) [D1C758A1]
Copy OK

Track 6

Filename E:\Music\Michael Stanley Band\Heartland\06 - All I Ever Wanted.wav

Pre-gap length 0:00:01.40

Peak level 94.3 %
Track quality 100.0 %
Test CRC 70E2431F
Copy CRC 70E2431F
Accurately ripped (confidence 3) [0C52B3EB]
Copy OK

Track 7

Filename E:\Music\Michael Stanley Band\Heartland\07 - Say Goodbye.wav

Pre-gap length 0:00:00.73

Peak level 94.3 %
Track quality 100.0 %
Test CRC 5F3843F9
Copy CRC 5F3843F9
Accurately ripped (confidence 3) [944FB41D]
Copy OK

Track 8

Filename E:\Music\Michael Stanley Band\Heartland\08 - Hearts On Fire.wav

Pre-gap length 0:00:00.42

Peak level 94.3 %
Track quality 100.0 %
Test CRC EFEB617B
Copy CRC EFEB617B
Accurately ripped (confidence 3) [09D1A9DC]
Copy OK

Track 9

Filename E:\Music\Michael Stanley Band\Heartland\09 - Voodoo.wav

Pre-gap length 0:00:01.26

Peak level 94.3 %
Track quality 100.0 %
Test CRC 2DC436C1
Copy CRC 2DC436C1
Accurately ripped (confidence 3) [A2770F6E]
Copy OK

Track 10

Filename E:\Music\Michael Stanley Band\Heartland\10 - Carolyn.wav

Pre-gap length 0:00:00.42

Peak level 94.3 %
Track quality 100.0 %
Test CRC C27DAE35
Copy CRC C27DAE35
Accurately ripped (confidence 3) [5C648E02]
Copy OK

Track 11

Filename E:\Music\Michael Stanley Band\Heartland\11 - Save a Little Piece for Me.wav

Pre-gap length 0:00:01.53

Peak level 94.3 %
Track quality 100.0 %
Test CRC CA1E9A1D
Copy CRC CA1E9A1D
Accurately ripped (confidence 3) [0EF52898]
Copy OK

Track 12

Filename E:\Music\Michael Stanley Band\Heartland\12 - He Can't Love You (Live).wav

Pre-gap length 0:00:01.56

Peak level 94.1 %
Track quality 100.0 %
Test CRC 3D00F798
Copy CRC 3D00F798
Accurately ripped (confidence 3) [7956F3DF]
Copy OK

Track 13

Filename E:\Music\Michael Stanley Band\Heartland\13 - Lover (Live).wav

Peak level 94.1 %
Track quality 100.0 %
Test CRC EBC3FE8A
Copy CRC EBC3FE8A
Accurately ripped (confidence 3) [E084F6C8]
Copy OK


All tracks accurately ripped

No errors occurred

End of status report


Cue
REM GENRE Rock
REM DATE 1980
REM DISCID AE0BC90D
REM COMMENT "ExactAudioCopy v0.99pb4"
FILE "01 - I'll Never Need Anyone More.wav" WAVE
TRACK 01 AUDIO
INDEX 01 00:00:00
TRACK 02 AUDIO
INDEX 00 03:15:00
FILE "02 - Lover.wav" WAVE
INDEX 01 00:00:00
FILE "03 - Don't Stop the Music.wav" WAVE
TRACK 03 AUDIO
INDEX 01 00:00:00
TRACK 04 AUDIO
INDEX 00 03:37:30
FILE "04 - He Can't Love You.wav" WAVE
INDEX 01 00:00:00
TRACK 05 AUDIO
INDEX 00 03:36:35
FILE "05 - Working Again.wav" WAVE
INDEX 01 00:00:00
TRACK 06 AUDIO
INDEX 00 03:55:27
FILE "06 - All I Ever Wanted.wav" WAVE
INDEX 01 00:00:00
TRACK 07 AUDIO
INDEX 00 03:10:28
FILE "07 - Say Goodbye.wav" WAVE
INDEX 01 00:00:00
TRACK 08 AUDIO
INDEX 00 03:26:70
FILE "08 - Hearts On Fire.wav" WAVE
INDEX 01 00:00:00
TRACK 09 AUDIO
INDEX 00 02:48:35
FILE "09 - Voodoo.wav" WAVE
INDEX 01 00:00:00
TRACK 10 AUDIO
INDEX 00 04:31:33
FILE "10 - Carolyn.wav" WAVE
INDEX 01 00:00:00
TRACK 11 AUDIO
INDEX 00 03:00:65
FILE "11 - Save a Little Piece for Me.wav" WAVE
INDEX 01 00:00:00
TRACK 12 AUDIO
INDEX 00 03:17:43
FILE "12 - He Can't Love You (Live).wav" WAVE
INDEX 01 00:00:00
FILE "13 - Lover (Live).wav" WAVE
TRACK 13 AUDIO
INDEX 01 00:00:00


FLAC
narod-FLAC
megaupload-FLAC

mp-320
megaupload-320

По мнению самих музыкантов сильнейший альбом в дискографии коллектива, обладавшим культовым статусом в своем родном городе и штате (Кливленд – Огайо), но не сумевший выйти на национальный уровень. Классический АОР с долей рок-н-роллов в духе Bon Jovi и Bruce Springsteen.
Автор рипа KingMcQueen. Сканы неродные, из сети, качество не ахти.

Image


Top
 Profile  
 
 
PostPosted: 09 Nov 2010 
Хиппей (support team)
User avatar
Joined: 30 Jul 2007
Posts: 106508
Lоcаtion: Киев (Kyiv, UA)
Age: 45
Name: Andrey
Забрал :thanx:

_________________


Top
 Profile E-mail  
 
 
PostPosted: 09 Nov 2010 
спирт 100%
User avatar
Joined: 22 Sep 2008
Posts: 4282
Age: 47
Name: Саня
Спасибо! :thanx:


Top
 Profile  
 
Display posts from previous:  Sort by  
Post new topic Reply to topic  [ 3 posts ] 

All times are UTC + 3 hours


Who is online

Users browsing this forum: No registered users and 2 guests


You cannot post new topics in this forum
You cannot reply to topics in this forum
You cannot edit your posts in this forum
You cannot delete your posts in this forum
You cannot post attachments in this forum

Search for:
Яндекс.Метрика
Powered by phpBB © 2000, 2002, 2005, 2007 phpBB Group