\m/ 80's metal \m/

Информационно-аналитический форум "80 см пыли" (In Search We Trust) "У нас никто никуда не спешит"
Me For You - http://me-4u.com
It is currently 23 Sep 2018

All times are UTC + 3 hours

Spoiler
Chat - temporary registration for foreign users (please leave your application here)







Post new topic Reply to topic  [ 4 posts ] 
Author Message
 
PostPosted: 05 Nov 2010 
Old Time Rock`n`Roll
User avatar
Joined: 23 Jun 2008
Posts: 3354
Lоcаtion: г.Ульяновск
Age: 40
Name: Константин
Speedway Blvd – Speedway Blvd (1980)

Image

Year: 1980
Style: AOR/Prog, Pomp Rock, Hard Rock
Country: USA
Format: APE (image+log+cue) & мп3-320
Size: 253 + 82 Mb

Tracklist
01. Speedway Boulevard
02. Chinatown
03. (Think I Better) Hold On
04. Dog in the Distance
05. Out of the Fire
06. Telephoto Lens
07. Prisoner of Time
08. Money Money
09. (Call My Name) Rock Magic
10. A Boulevard Nite

TPT – 35:24

Line-Up
Gregg Hoffman - guitar, vocals
Dennis Feldman - bass, vocals
Roy Herring Jr. - vocals, percussion, piano
Glenn Dove - drums, percussion
Jordan Rudess – keyboards

Album Credits:
Produced: Jerry Kasanetz & Jeff Katz
Engineered: Michael Earls
Mixed: David Thoerner

Log
Journal d'extraction EAC depuis 14. Octobre 2006, 16:29 pour CD
Speedway Blvd / Speedway Blvd

Lecteur utilisй : HP DVD Writer 300c Adapter: 2 ID: 0
Mode lecture : Sйcurisй SANS C2, Flux prйcis, Cache dйsactivй
Correction Offset Ecriture : 0
Lecture йtendue en Lead-In et Lead-Out : Non

Format de sortie utilisй : Routines WAV interne
44.100 Hz; 16 Bit; Stйrйo

Autres options :
Remplacer les samples manquants par du silence : Oui
Effacer les blocs silencieux situйs en dйbut et fin : Non
Interface Native Win32 pour Win NT & 2000


Propriйtйs Etats et Erreurs
Gammes sйlectionnйes
Nom fichier C:\Documents and Settings\Propriйtaire\Mes documents\Ma musique\SPEEDWAY BLVD.Same EAC.APE+SCANScans by phil storace\Speedway Blvd - Speedway Blvd.wav

Niveau Max 100.0 %
qualitй intervalle 100.0 %
CRC 67082477
Copie Ok

Pas d'erreur apparue

Fin du rapport d'йtat


Cue
REM GENRE AOR
REM DATE 2002
REM DISCID 85084B0A
REM COMMENT "ExactAudioCopy v0.95b3"
PERFORMER "Speedway Blvd"
TITLE "Speedway Blvd"
FILE "Speedway Blvd - Speedway Blvd.wav" WAVE
TRACK 01 AUDIO
TITLE "Speedway Boulevard"
PERFORMER "Speedway Blvd"
FLAGS DCP
INDEX 01 00:00:00
TRACK 02 AUDIO
TITLE "Chinatown"
PERFORMER "Speedway Blvd"
FLAGS DCP
INDEX 01 03:47:68
TRACK 03 AUDIO
TITLE "(I Think I Better), Hold On"
PERFORMER "Speedway Blvd"
FLAGS DCP
INDEX 01 07:10:43
TRACK 04 AUDIO
TITLE "Dog In The Distance"
PERFORMER "Speedway Blvd"
FLAGS DCP
INDEX 01 10:05:64
TRACK 05 AUDIO
TITLE "Out Of The Fire"
PERFORMER "Speedway Blvd"
FLAGS DCP
INDEX 01 14:06:06
TRACK 06 AUDIO
TITLE "Telephoto Lens"
PERFORMER "Speedway Blvd"
FLAGS DCP
INDEX 01 17:06:02
TRACK 07 AUDIO
TITLE "Prisoner Of Time"
PERFORMER "Speedway Blvd"
FLAGS DCP
INDEX 01 20:34:16
TRACK 08 AUDIO
TITLE "Money Money"
PERFORMER "Speedway Blvd"
FLAGS DCP
INDEX 01 25:03:32
TRACK 09 AUDIO
TITLE "(Call My Name) Rock Magic"
PERFORMER "Speedway Blvd"
FLAGS DCP
INDEX 01 28:05:57
TRACK 10 AUDIO
TITLE "A Boulevard Nite"
PERFORMER "Speedway Blvd"
FLAGS DCP
INDEX 01 32:24:49


APE
narod-APE
megaupload-APE

mp-320
megaupload-320

Релиз WWR, автор рипа phil storace. Рип достаточно старый, сделан еще с нулевым оффсетом.
Единственный альбом коллектива, на клавишных Джордан Рудесс, с конца 90-х участник Dream Theater, Деннис Фелдман впоследствие записывался с Джоан Джетт и Майклом Болтоном, а также входил в состав 1985 года австралийских хард-н-хэвщиков Heaven.


Top
 Profile  
 
 
PostPosted: 05 Nov 2010 
труъ антисионист
User avatar
Joined: 01 Aug 2007
Posts: 4541
Lоcаtion: Откуда и большинство из нас
Age: 37
Name: Дядя Вова
Судя по этой песне группа знаковая! :true:
phpBB [youtube]

_________________
Image
Image


Top
 Profile  
 
 
PostPosted: 05 Nov 2010 
спирт 100%
User avatar
Joined: 22 Sep 2008
Posts: 4282
Age: 47
Name: Саня
Костя,СПАСИБО! :true: :thanx:


Top
 Profile  
 
 
PostPosted: 05 Nov 2010 
А может смените мне статус?..
User avatar
Joined: 06 Sep 2007
Posts: 808
Lоcаtion: СПб
Age: 63
Name: Сергей
Спасибо за 320


Top
 Profile  
 
Display posts from previous:  Sort by  
Post new topic Reply to topic  [ 4 posts ] 

All times are UTC + 3 hours


Who is online

Users browsing this forum: No registered users and 2 guests


You cannot post new topics in this forum
You cannot reply to topics in this forum
You cannot edit your posts in this forum
You cannot delete your posts in this forum
You cannot post attachments in this forum

Search for:
Яндекс.Метрика
Powered by phpBB © 2000, 2002, 2005, 2007 phpBB Group