\m/ 80's metal \m/

Информационно-аналитический форум "80 см пыли" (In Search We Trust) "У нас никто никуда не спешит"
Железнодорожная биржа - RailAgent
It is currently 22 Jul 2018

All times are UTC + 3 hours

Spoiler
Chat - temporary registration for foreign users (please leave your application here)







Post new topic Reply to topic  [ 5 posts ] 
Author Message
 
PostPosted: 01 Nov 2010 
Генеральный thrasher
User avatar
Joined: 03 Oct 2008
Posts: 3408
Lоcаtion: Ханты-Мансийский АО
Age: 43
Name: Сергей
Image

Year:1994
Style:Technical Thrash Metal
Country:U.S.A.
Audio:Flac+Cue+Log+Covers
Source:my CD
Size:164Mb
Label:Energy Records

Line-Up:
Brad Divens - vocals, bass, guitar on 6
Terry Carter - guitar
Jay Abbene - guitar
Shannon Larkin - drums, vocals on 3 & 6

Tracklist:
1. Don't Ask 03:33
2. Underneath 05:40
3. Flies 02:44
4. Hardline 04:36
5. I Against I (Bad Brains Cover) 03:44
6. When the Shit Hits the Fan (Circle Jerks Cover) 02:15

Cue
REM DISCID 54053206
REM COMMENT "ExactAudioCopy v0.99pb4"
PERFORMER "Souls At Zero"
TITLE "Six-t-six"
FILE "Souls At Zero - Six-t-six.flac" WAVE
TRACK 01 AUDIO
TITLE "Don't Ask"
PERFORMER "Souls At Zero"
INDEX 01 00:00:00
TRACK 02 AUDIO
TITLE "Underneath"
PERFORMER "Souls At Zero"
INDEX 00 03:31:48
INDEX 01 03:33:20
TRACK 03 AUDIO
TITLE "Flies"
PERFORMER "Souls At Zero"
INDEX 00 09:12:10
INDEX 01 09:13:35
TRACK 04 AUDIO
TITLE "Hardline (Demo 92)"
PERFORMER "Souls At Zero"
INDEX 01 11:35:30
TRACK 05 AUDIO
TITLE "I Against I"
PERFORMER "Souls At Zero"
INDEX 00 16:10:01
INDEX 01 16:11:10
TRACK 06 AUDIO
TITLE "When the Shit Hits the Fan"
PERFORMER "Souls At Zero"
INDEX 01 19:55:20


Log
Exact Audio Copy V0.99 prebeta 4 from 23. January 2008

Отчёт EAC об извлечении, выполненном 1. ноября 2010, 11:00

Souls At Zero / Six-t-six

Дисковод: TSSTcorpCDDVDW SH-S202N Adapter: 0 ID: 1

Режим чтения : Достоверность
Использование точного потока : Да
Отключение кэша аудио : Да
Использование указателей C2 : Нет

Коррекция смещения при чтении : 6
Способность читать области Lead-in и Lead-out : Нет
Заполнение пропущенных сэмплов тишиной : Да
Удаление блоков с тишиной в начале и конце : Нет
При вычислениях CRC использовались нулевые сэмплы : Да
Интерфейс : Установленный внешний ASPI-интерфейс

Выходной формат : Пользовательский кодировщик
Выбранный битрейт : 768 kBit/s
Качество : Высокий
Добавление ID3-тэга : Нет
Утилита сжатия : C:\Program Files\Exact Audio Copy\FLAC\FLAC.EXE
Дополнительные параметры : -6 -V -T "ARTIST=%a" -T "TITLE=%t" -T "ALBUM=%g" -T "DATE=%y" -T "TRACKNUMBER=%n" -T "GENRE=%m" -T "COMMENT=%e" %s -o %d


TOC извлечённого CD

Трек | Старт | Длительность | Начальный сектор | Конечный сектор
---------------------------------------------------------------------
1 | 0:00.00 | 3:33.20 | 0 | 15994
2 | 3:33.20 | 5:40.15 | 15995 | 41509
3 | 9:13.35 | 2:21.70 | 41510 | 52154
4 | 11:35.30 | 4:35.55 | 52155 | 72834
5 | 16:11.10 | 3:44.10 | 72835 | 89644
6 | 19:55.20 | 2:15.50 | 89645 | 99819


Характеристики диапазона извлечения и сообщения об ошибках

Выбранный диапазон

Имя файла F:\Лоси\S\Souls At Zero - Six-t-six.wav

Пиковый уровень 97.7 %
Качество диапазона 99.9 %
CRC копии 05B9F111
Копирование... OK

Ошибок не произошло


AccurateRip: сводка

Трек 1 нет в базе данных
Трек 2 нет в базе данных
Трек 3 нет в базе данных
Трек 4 нет в базе данных
Трек 5 нет в базе данных
Трек 6 нет в базе данных

Ни одного трека нет в базе AccurateRip

Конец отчёта


MEGAUPLOAD

Очень неплохая команда,являющаяся по сути продолжением трэш-банды Wrathchild America.Если дебютник выдержан чисто в трэшовом духе,то эта епишка более разнообразна по стилистике.В любом случан рекомендую к прослушиванию.Купил все три работы группы.Если надо,залью оба полноформатника.


Top
 Profile  
 
 
PostPosted: 01 Nov 2010 
А может смените мне статус?..
User avatar
Joined: 17 Jan 2008
Posts: 845
Lоcаtion: Пенза
Age: 40
Name: Денис
:true: спасибо!!!!


Top
 Profile  
 
 
PostPosted: 01 Aug 2011 
ТрэшЭрос
User avatar
Joined: 18 Jul 2011
Posts: 2296
Lоcаtion: Гулькевичи
Age: 43
Name: Александр
thorbeorn, спасибо :thanx:

:true: :true: :true:

_________________
Thrash no trash!!!


Top
 Profile E-mail  
 
 
PostPosted: 01 Aug 2011 
Хиппей (support team)
User avatar
Joined: 30 Jul 2007
Posts: 105198
Lоcаtion: Киев (Kyiv, UA)
Age: 45
Name: Andrey
Ураа!!! Хоть и грувастая, но на то время очень обожаемая мной группа :true: :thanx: :thanx: :thanx:
Не откажусь и от остальных альбомов :dance:

_________________


Top
 Profile E-mail  
 
 
PostPosted: 03 Oct 2013 
Хиппей (support team)
User avatar
Joined: 30 Jul 2007
Posts: 105198
Lоcаtion: Киев (Kyiv, UA)
Age: 45
Name: Andrey
mirror: Narod

_________________


Top
 Profile E-mail  
 
Display posts from previous:  Sort by  
Post new topic Reply to topic  [ 5 posts ] 

All times are UTC + 3 hours


Who is online

Users browsing this forum: No registered users and 4 guests


You cannot post new topics in this forum
You cannot reply to topics in this forum
You cannot edit your posts in this forum
You cannot delete your posts in this forum
You cannot post attachments in this forum

Search for:
Яндекс.Метрика
Powered by phpBB © 2000, 2002, 2005, 2007 phpBB Group