\m/ 80's metal \m/

Информационно-аналитический форум "80 см пыли" (In Search We Trust) "У нас никто никуда не спешит"
Железнодорожная биржа - RailAgent
It is currently 23 Jul 2018

All times are UTC + 3 hours

Spoiler
Chat - temporary registration for foreign users (please leave your application here)







Post new topic Reply to topic  [ 3 posts ] 
Author Message
 
PostPosted: 31 Oct 2010 
Old Time Rock`n`Roll
User avatar
Joined: 23 Jun 2008
Posts: 3342
Lоcаtion: г.Ульяновск
Age: 39
Name: Константин
Santers – Guitar Alley (1984)

Image

Year: 1984
Style: Hard Rock, AOR
Country: Canada
Format: FLAC (tracks+log+cue) & мп3-320
Size: 300 Mb + 97 Mb

Tracklist
01. Can't Shake You (4:12)
02. Hotline (4:38)
03. High Risk (3:57)
04. Hate To Love You (4:46)
05. Too Young To Die (4:22)
06. Loa (0:38)
07. Black Magic (3:20)
08. All Right Now (5:35)
09. Baby Blue (5:25)
10. Dreaming (5:46)

TPT – 42:42

Line-Up
Mark Santers - Drums, Percussion, Backing Vocals
Rick Lazaroff - Bass
Rick Santers - Vocals, Guitars, Keyboards

Album Credits:
Produced: Rik Emmett
Engineered: Ed Stone
Mastered: Bob Ludwig
Remastered: George Graves

Additional Credits:
Lou Pomanti Keyboards on # 1, 3, 10
Shawne Jackson Backing Vocals on # 3, 8
Photography: Patrick Harbron
Cover Art: Heather Brown/Diagram

Charting Singles:
All Right Now - Canada # 13

Log
Exact Audio Copy V0.99 prebeta 5 from 4. May 2009

EAC extraction logfile from 18. May 2010, 6:19

Santers / Guitar Alley

Used drive : Optiarc DVD+-RW ND-3570A Adapter: 0 ID: 0

Read mode : Secure
Utilize accurate stream : Yes
Defeat audio cache : Yes
Make use of C2 pointers : No

Read offset correction : 48
Overread into Lead-In and Lead-Out : No
Fill up missing offset samples with silence : Yes
Delete leading and trailing silent blocks : No
Null samples used in CRC calculations : Yes
Used interface : Native Win32 interface for Win NT & 2000
Gap handling : Appended to previous track

Used output format : User Defined Encoder
Selected bitrate : 320 kBit/s
Quality : High
Add ID3 tag : No
Command line compressor : F:\Program Files\Exact Audio Copy\Flac\flac.exe
Additional command line options : -8 -V -T "ARTIST=%a" -T "TITLE=%t" -T "ALBUM=%g" -T "DATE=%y" -T "TRACKNUMBER=%n" -T "GENRE=%m" -T "COMMENT=EAC FLAC -8" %s


TOC of the extracted CD

Track | Start | Length | Start sector | End sector
---------------------------------------------------------
1 | 0:00.00 | 4:10.35 | 0 | 18784
2 | 4:10.35 | 4:38.45 | 18785 | 39679
3 | 8:49.05 | 3:56.67 | 39680 | 57446
4 | 12:45.72 | 4:46.15 | 57447 | 78911
5 | 17:32.12 | 4:22.28 | 78912 | 98589
6 | 21:54.40 | 0:37.61 | 98590 | 101425
7 | 22:32.26 | 3:19.42 | 101426 | 116392
8 | 25:51.68 | 5:34.71 | 116393 | 141513
9 | 31:26.64 | 5:25.10 | 141514 | 165898
10 | 36:51.74 | 5:49.48 | 165899 | 192121


Track 1

Filename F:\Documents and Settings\Pikouze\Mes documents\EAC Extraction\01 - Can't Shake You.wav

Pre-gap length 0:00:02.00

Peak level 99.4 %
Track quality 100.0 %
Test CRC 7600EEDA
Copy CRC 7600EEDA
Track not present in AccurateRip database
Copy OK

Track 2

Filename F:\Documents and Settings\Pikouze\Mes documents\EAC Extraction\02 - Hotline.wav

Peak level 99.4 %
Track quality 99.9 %
Test CRC EE98E851
Copy CRC EE98E851
Track not present in AccurateRip database
Copy OK

Track 3

Filename F:\Documents and Settings\Pikouze\Mes documents\EAC Extraction\03 - High Risk.wav

Peak level 99.4 %
Track quality 100.0 %
Test CRC BFE60CC0
Copy CRC BFE60CC0
Track not present in AccurateRip database
Copy OK

Track 4

Filename F:\Documents and Settings\Pikouze\Mes documents\EAC Extraction\04 - Hate to Love You.wav

Peak level 99.4 %
Track quality 100.0 %
Test CRC B7884449
Copy CRC B7884449
Track not present in AccurateRip database
Copy OK

Track 5

Filename F:\Documents and Settings\Pikouze\Mes documents\EAC Extraction\05 - Too Young to Die.wav

Peak level 99.4 %
Track quality 100.0 %
Test CRC C732F202
Copy CRC C732F202
Track not present in AccurateRip database
Copy OK

Track 6

Filename F:\Documents and Settings\Pikouze\Mes documents\EAC Extraction\06 - Loa.wav

Peak level 99.3 %
Track quality 100.0 %
Test CRC B3F58950
Copy CRC B3F58950
Track not present in AccurateRip database
Copy OK

Track 7

Filename F:\Documents and Settings\Pikouze\Mes documents\EAC Extraction\07 - Black Magic.wav

Peak level 99.4 %
Track quality 99.9 %
Test CRC 0648A7D2
Copy CRC 0648A7D2
Track not present in AccurateRip database
Copy OK

Track 8

Filename F:\Documents and Settings\Pikouze\Mes documents\EAC Extraction\08 - All Right Now.wav

Peak level 99.4 %
Track quality 100.0 %
Test CRC C4ABCBEB
Copy CRC C4ABCBEB
Track not present in AccurateRip database
Copy OK

Track 9

Filename F:\Documents and Settings\Pikouze\Mes documents\EAC Extraction\09 - Baby Blue.wav

Peak level 99.4 %
Track quality 100.0 %
Test CRC 332BED22
Copy CRC 332BED22
Track not present in AccurateRip database
Copy OK

Track 10

Filename F:\Documents and Settings\Pikouze\Mes documents\EAC Extraction\10 - Dreaming.wav

Peak level 99.4 %
Track quality 99.9 %
Test CRC B78B74FF
Copy CRC B78B74FF
Track not present in AccurateRip database
Copy OK


None of the tracks are present in the AccurateRip database

No errors occurred

End of status report


Cue
REM GENRE "Hard Rock"
REM DATE 1984
REM DISCID 790A010A
REM COMMENT "ExactAudioCopy v0.99pb5"
PERFORMER "Santers"
TITLE "Guitar Alley"
FILE "01 - Can't Shake You.wav" WAVE
TRACK 01 AUDIO
TITLE "Can't Shake You"
PERFORMER "Santers"
FLAGS DCP
INDEX 01 00:00:00
FILE "02 - Hotline.wav" WAVE
TRACK 02 AUDIO
TITLE "Hotline"
PERFORMER "Santers"
FLAGS DCP
INDEX 01 00:00:00
FILE "03 - High Risk.wav" WAVE
TRACK 03 AUDIO
TITLE "High Risk"
PERFORMER "Santers"
FLAGS DCP
INDEX 01 00:00:00
FILE "04 - Hate to Love You.wav" WAVE
TRACK 04 AUDIO
TITLE "Hate to Love You"
PERFORMER "Santers"
FLAGS DCP
INDEX 01 00:00:00
FILE "05 - Too Young to Die.wav" WAVE
TRACK 05 AUDIO
TITLE "Too Young to Die"
PERFORMER "Santers"
FLAGS DCP
INDEX 01 00:00:00
FILE "06 - Loa.wav" WAVE
TRACK 06 AUDIO
TITLE "Loa"
PERFORMER "Santers"
FLAGS DCP
INDEX 01 00:00:00
FILE "07 - Black Magic.wav" WAVE
TRACK 07 AUDIO
TITLE "Black Magic"
PERFORMER "Santers"
FLAGS DCP
INDEX 01 00:00:00
FILE "08 - All Right Now.wav" WAVE
TRACK 08 AUDIO
TITLE "All Right Now"
PERFORMER "Santers"
FLAGS DCP
INDEX 01 00:00:00
FILE "09 - Baby Blue.wav" WAVE
TRACK 09 AUDIO
TITLE "Baby Blue"
PERFORMER "Santers"
FLAGS DCP
INDEX 01 00:00:00
FILE "10 - Dreaming.wav" WAVE
TRACK 10 AUDIO
TITLE "Dreaming"
PERFORMER "Santers"
FLAGS DCP
INDEX 01 00:00:00


FLAC
narod-FLAC
megaupload-FLAC

mp -320
megaupload-320


Последний выпущенный студийный диск канадцев в 80-е, смесь тяжелого АОРа, Dokken и Foreigner. Несмотря на 1984 год в музыке еще витают следы 70-х, наверное этого от формата группы – хард-роковое трио. Хороший альбом.
Сканы не родные, они от другого издания альбома с бонусом, здесь бонусного трека нет. Ранее выложенный вариант мп3-320 как раз от варианта с бонусом.
За рип спасибо пользователю Florence

Image


Top
 Profile  
 
 
PostPosted: 01 Nov 2010 
Почётный металлург
User avatar
Joined: 15 Sep 2007
Posts: 4357
Lоcаtion: Хабаровск
Age: 58
Name: чуть выше
:thanx: :thanx: :thanx:

_________________
Коль будешь людей ты ослами честить,
тебе человеком меж них не прослыть!
(Саади, персидский поэт, 13в.)


Top
 Profile  
 
 
PostPosted: 03 Nov 2010 
труъ антисионист
User avatar
Joined: 01 Aug 2007
Posts: 4541
Lоcаtion: Откуда и большинство из нас
Age: 37
Name: Дядя Вова
:losik: :true:

_________________
Image
Image


Top
 Profile  
 
Display posts from previous:  Sort by  
Post new topic Reply to topic  [ 3 posts ] 

All times are UTC + 3 hours


Who is online

Users browsing this forum: No registered users and 5 guests


You cannot post new topics in this forum
You cannot reply to topics in this forum
You cannot edit your posts in this forum
You cannot delete your posts in this forum
You cannot post attachments in this forum

Search for:
Яндекс.Метрика
Powered by phpBB © 2000, 2002, 2005, 2007 phpBB Group