\m/ 80's metal \m/

Информационно-аналитический форум "80 см пыли" (In Search We Trust) "У нас никто никуда не спешит"
Me For You - http://me-4u.com
It is currently 24 Sep 2018

All times are UTC + 3 hours

Spoiler
Chat - temporary registration for foreign users (please leave your application here)







Post new topic Reply to topic  [ 10 posts ] 
Author Message
 
PostPosted: 29 Oct 2010 
Генеральный thrasher
User avatar
Joined: 03 Oct 2008
Posts: 3449
Lоcаtion: Ханты-Мансийский АО
Age: 43
Name: Сергей
Image

Year:1990
Style:Thrash Metal
Country:U.S.A.
Audio:Flac+Cue+Log+Covers
Size:279Mb
Label:Metal Blade

Line-Up:
Steve Srozinski - Vocals
Mark Cahill - Guitar, Backing Vocals
Danny Greco - Guitar, Backing Vocals
Brian Mangini - Bass
Brian Fraipont - Drums

Tracklist:
1. F.T.W. 05:12
2. Let The Neighbors Hear 03:12
3. U.S.A. 03:46
4. It Ain't Easy 03:27
5. Kick 'Em When They're Down 03:55
6. Incomplete Insanity 05:21
7. Demon's Flight 06:38
8. Wasting Away 04:04
9. Black Sheep 03:16
10. Electric Rasp 01:22

Cue
REM GENRE "Thrash Metal"
REM DATE 1990
REM DISCID 7809730A
REM COMMENT "ExactAudioCopy v0.99pb4"
PERFORMER "Slaughter house"
TITLE "Slaughter house"
FILE "Slaughter house - Slaughter house.flac" WAVE
TRACK 01 AUDIO
TITLE "ftw"
PERFORMER "Slaughter house"
INDEX 00 00:00:00
INDEX 01 00:00:33
TRACK 02 AUDIO
TITLE "let the neighbours hear"
PERFORMER "Slaughter house"
INDEX 00 05:11:43
INDEX 01 05:13:48
TRACK 03 AUDIO
TITLE "usa"
PERFORMER "Slaughter house"
INDEX 00 08:26:10
INDEX 01 08:26:25
TRACK 04 AUDIO
TITLE "it aint easy"
PERFORMER "Slaughter house"
INDEX 00 12:12:23
INDEX 01 12:13:45
TRACK 05 AUDIO
TITLE "kick em when theyre down"
PERFORMER "Slaughter house"
INDEX 00 15:40:54
INDEX 01 15:41:65
TRACK 06 AUDIO
TITLE "incomplete insanity"
PERFORMER "Slaughter house"
INDEX 00 19:36:20
INDEX 01 19:37:43
TRACK 07 AUDIO
TITLE "demons flight"
PERFORMER "Slaughter house"
INDEX 00 24:58:54
INDEX 01 25:00:10
TRACK 08 AUDIO
TITLE "wasting away"
PERFORMER "Slaughter house"
INDEX 00 31:37:61
INDEX 01 31:38:70
TRACK 09 AUDIO
TITLE "black sheep"
PERFORMER "Slaughter house"
INDEX 00 35:41:53
INDEX 01 35:43:13
TRACK 10 AUDIO
TITLE "electric rasp"
PERFORMER "Slaughter house"
INDEX 00 38:55:51
INDEX 01 38:57:13


Log
Exact Audio Copy V0.99 prebeta 4 from 23. January 2008

Отчёт EAC об извлечении, выполненном 29. октября 2010, 10:28

Slaughter house / Slaughter house

Дисковод: TSSTcorpCDDVDW SH-S202N Adapter: 0 ID: 1

Режим чтения : Достоверность
Использование точного потока : Да
Отключение кэша аудио : Да
Использование указателей C2 : Нет

Коррекция смещения при чтении : 6
Способность читать области Lead-in и Lead-out : Нет
Заполнение пропущенных сэмплов тишиной : Да
Удаление блоков с тишиной в начале и конце : Нет
При вычислениях CRC использовались нулевые сэмплы : Да
Интерфейс : Установленный внешний ASPI-интерфейс

Выходной формат : Пользовательский кодировщик
Выбранный битрейт : 768 kBit/s
Качество : Высокий
Добавление ID3-тэга : Нет
Утилита сжатия : C:\Program Files\Exact Audio Copy\FLAC\FLAC.EXE
Дополнительные параметры : -6 -V -T "ARTIST=%a" -T "TITLE=%t" -T "ALBUM=%g" -T "DATE=%y" -T "TRACKNUMBER=%n" -T "GENRE=%m" -T "COMMENT=%e" %s -o %d


TOC извлечённого CD

Трек | Старт | Длительность | Начальный сектор | Конечный сектор
---------------------------------------------------------------------
1 | 0:00.33 | 5:13.15 | 33 | 23522
2 | 5:13.48 | 3:12.52 | 23523 | 37974
3 | 8:26.25 | 3:47.20 | 37975 | 55019
4 | 12:13.45 | 3:28.20 | 55020 | 70639
5 | 15:41.65 | 3:55.53 | 70640 | 88317
6 | 19:37.43 | 5:22.42 | 88318 | 112509
7 | 25:00.10 | 6:38.60 | 112510 | 142419
8 | 31:38.70 | 4:04.18 | 142420 | 160737
9 | 35:43.13 | 3:14.00 | 160738 | 175287
10 | 38:57.13 | 1:22.47 | 175288 | 181484


Характеристики диапазона извлечения и сообщения об ошибках

Выбранный диапазон

Имя файла F:\Лоси\S\Slaughter house - Slaughter house.wav

Пиковый уровень 100.0 %
Качество диапазона 100.0 %
CRC копии 15D6193B
Копирование... OK

Ошибок не произошло


AccurateRip: сводка

Трек 1 нет в базе данных
Трек 2 нет в базе данных
Трек 3 нет в базе данных
Трек 4 нет в базе данных
Трек 5 нет в базе данных
Трек 6 нет в базе данных
Трек 7 нет в базе данных
Трек 8 нет в базе данных
Трек 9 нет в базе данных
Трек 10 нет в базе данных

Ни одного трека нет в базе AccurateRip

Конец отчёта


MEGAUPLOAD

Рип с моего диска.Только вчера получил.Группа классная.Давно за ними гонялся.Приятного прослушивания.


Top
 Profile  
 
 
PostPosted: 29 Oct 2010 
Хиппей (support team)
User avatar
Joined: 30 Jul 2007
Posts: 106508
Lоcаtion: Киев (Kyiv, UA)
Age: 45
Name: Andrey
Серёга, спасибо! :true:

_________________


Top
 Profile E-mail  
 
 
PostPosted: 29 Oct 2010 
Gretzky must die
User avatar
Joined: 16 Sep 2010
Posts: 263
Lоcаtion: Московская обл.
Name: Андрей
Мерси ! Старинный трэш - наше всё.


Top
 Profile  
 
 
PostPosted: 29 Oct 2010 
Анатолий
User avatar
Joined: 18 Oct 2008
Posts: 3119
Lоcаtion: Армавир
Age: 41
Name: Анатолий
thorbeorn

Спасибо большое! :thanx: Ничего о них раньше не слышал... Послушаю сейчас. :meloman:


Top
 Profile E-mail  
 
 
PostPosted: 29 Oct 2010 
Motörheadache
User avatar
Joined: 04 Feb 2010
Posts: 1294
Lоcаtion: Впереди- горы,позади-степи
Age: 45
Name: Александр
Серёж...широ дякую ! :thanx: :true:
Качаю,чё уж там думать...

_________________
Eine Nation, Ein Land, Eine Schnaps!

Наш священный долг:защищать Родину,и соблюдать правила личной гигиены....!


Top
 Profile E-mail  
 
 
PostPosted: 29 Oct 2010 
Old Time Rock`n`Roll
User avatar
Joined: 23 Jun 2008
Posts: 3354
Lоcаtion: г.Ульяновск
Age: 40
Name: Константин
Спасибо, глянул у меня только 1991 г., замеру дебютный :thanx:


Top
 Profile  
 
 
PostPosted: 30 Oct 2010 
Анатолий
User avatar
Joined: 18 Oct 2008
Posts: 3119
Lоcаtion: Армавир
Age: 41
Name: Анатолий
Ого-го! Да это же очень приятная ШТУКА!!! :true: Честно говоря даже не ожидал что покатит с первого же прослушивания! :meloman: Данное музицирование мне очень и очень нравится!!! Давно не получал такого заряда бодрости духа и хорошего настроения со времён Pro-Pain - "Foul Taste of Freedom"! Пока все песни идут на ура! :true:

Это не совсем Thrash, вернее сказать тут не только Thrash. Некоторые вокальные партии выполненны в Rap ключе, только пусть это никого не пугает и не отвращает от группы, у ребят всё получилось достаточно гармонично, палку они не перегнули! Музыка... тоже достаточно разнообразна, от Heavy до Thrash с рваными ритмами и меняющимся темпом, иногда появляются и Funk'вские фишки, хотя он тут и не ураганный, просто бодрая и достаточно драйвовая музыка. Вокал сам по себе приятный. Нет перекосов ни в визг ни в хрип, одним словом - мужское пение. Хоровых бэков не много, но если они есть, то будьте уверены они производят нужный эффект.

Аналогии так же возникли и с другими очень достойными группами, такими как Bitter End и Cold Steel.

ОГРОМНОЕ СПАСИБО ЗА РЕЛИЗ И ЗА ГРУППУ В ЦЕЛОМ!!! :thanx: ОТЛИЧНО, ПРОСТО ОТЛИЧНО!!! :true:

Качаю второй альбом! :true: :meloman:


Top
 Profile E-mail  
 
 
PostPosted: 30 Oct 2010 
Генеральный thrasher
User avatar
Joined: 03 Oct 2008
Posts: 3449
Lоcаtion: Ханты-Мансийский АО
Age: 43
Name: Сергей
А я оба приобрёл.Не смог удержаться.Теперь стоят на полочке.Радуют глаз.


Top
 Profile  
 
 
PostPosted: 01 Nov 2010 
Прокъмитолист
User avatar
Joined: 12 Aug 2007
Posts: 6473
Lоcаtion: Санктъ-Петербуркъ
Age: 50
Name: Олекъ
непременно заберу. спасибо, Серёга! :true:

_________________
прокъметол - это музыко, от которово есть прок (ы)


Top
 Profile  
 
 
PostPosted: 04 Nov 2010 
Я набрал 1000 сообщений!
User avatar
Joined: 25 Dec 2008
Posts: 1545
Age: 43
Name: Павел
Серега,спасибо! :true:
Я про них еще в начале 90-х в Заразе рецензию читал(5 баллов из 5).
Но тогда не нашел альбома.


Top
 Profile  
 
Display posts from previous:  Sort by  
Post new topic Reply to topic  [ 10 posts ] 

All times are UTC + 3 hours


Who is online

Users browsing this forum: No registered users and 4 guests


You cannot post new topics in this forum
You cannot reply to topics in this forum
You cannot edit your posts in this forum
You cannot delete your posts in this forum
You cannot post attachments in this forum

Search for:
Яндекс.Метрика
Powered by phpBB © 2000, 2002, 2005, 2007 phpBB Group