\m/ 80's metal \m/

Информационно-аналитический форум "80 см пыли" (In Search We Trust) "У нас никто никуда не спешит"
Me For You - http://me-4u.com
It is currently 19 Sep 2018

All times are UTC + 3 hours

Spoiler
Chat - temporary registration for foreign users (please leave your application here)







Post new topic Reply to topic  [ 7 posts ] 
Author Message
 
PostPosted: 28 Oct 2010 
ыыыы
User avatar
Joined: 17 May 2009
Posts: 952
Lоcаtion: Пушкино, МО
Age: 39
Name: Дмитрий
Image


Жанр: Heavy Metal
Происхождение исполнителя: Дания
Год издания: 1990
Год издания данного носителя: 1986
Страна-производитель носителя: Япония
Аудио кодек: FLAC
Тип рипа: image+.cue
Битрейт аудио: lossless
Продолжительность: 34:15
Рип: Собственный
Лейбл: ROADRUNNER/S.M.S.
Каталоговый номер: APCY-8022
Матрица: APCY-8022- 2P 11 V (JVC)

Треклист:
1. Shakin' Brains 03:59
2. Universe 04:23
3. Always 04:12
4. Why 04:03
5. Handled Roughly 07:46
6. Meaningless 03:24
7. Walking in the Shadow 06:29

"Куй"
REM GENRE "Hard Rock"
REM DATE 1986
REM DISCID 61080707
REM COMMENT "ExactAudioCopy v0.99pb5"
PERFORMER "Silver Mountain"
TITLE "Hibiya ~ Live In Japan '85 [APCY-8022]"
FILE "Silver Mountain - Hibiya ~ Live In Japan '85 [APCY-8022].flac" WAVE
TRACK 01 AUDIO
TITLE "Shakin' Brains"
PERFORMER "Silver Mountain"
INDEX 00 00:00:00
INDEX 01 00:00:37
TRACK 02 AUDIO
TITLE "Universe"
PERFORMER "Silver Mountain"
INDEX 01 03:59:57
TRACK 03 AUDIO
TITLE "Always"
PERFORMER "Silver Mountain"
INDEX 01 08:22:22
TRACK 04 AUDIO
TITLE "Why"
PERFORMER "Silver Mountain"
INDEX 01 12:33:64
TRACK 05 AUDIO
TITLE "Handled Roughly"
PERFORMER "Silver Mountain"
INDEX 01 16:36:39
TRACK 06 AUDIO
TITLE "Meaningless"
PERFORMER "Silver Mountain"
INDEX 01 24:22:37
TRACK 07 AUDIO
TITLE "Walking In The Shadow"
PERFORMER "Silver Mountain"
INDEX 01 27:46:37


"Лог"
Exact Audio Copy V0.99 prebeta 5 from 4. May 2009

Отчёт EAC об извлечении, выполненном 18. октября 2010, 10:12

Silver Mountain / Hibiya ~ Live In Japan '85 [APCY-8022]

Дисковод: Optiarc DVD RW AD-7200A Adapter: 1 ID: 0

Режим чтения : Достоверность
Использование точного потока : Да
Отключение кэша аудио : Да
Использование указателей C2 : Нет

Коррекция смещения при чтении : 48
Способность читать области Lead-in и Lead-out : Нет
Заполнение пропущенных сэмплов тишиной : Да
Удаление блоков с тишиной в начале и конце : Нет
При вычислениях CRC использовались нулевые сэмплы : Да
Интерфейс : Встроенный Win32-интерфейс для Win NT/2000

Выходной формат : Пользовательский кодировщик
Выбранный битрейт : 128 kBit/s
Качество : Высокий
Добавление ID3-тэга : Нет
Утилита сжатия : C:\Program Files\Exact Audio Copy\Flac\flac.exe
Дополнительные параметры : -8 -V -T "artist=%a" -T "title=%t" -T "album=%g" -T "date=%y" -T "tracknumber=%n" -T "genre=%m" -T "comment=EAC


TOC извлечённого CD

Трек | Старт | Длительность | Начальный сектор | Конечный сектор
---------------------------------------------------------------------
1 | 0:00.37 | 3:59.20 | 37 | 17981
2 | 3:59.57 | 4:22.40 | 17982 | 37671
3 | 8:22.22 | 4:11.42 | 37672 | 56538
4 | 12:33.64 | 4:02.50 | 56539 | 74738
5 | 16:36.39 | 7:45.73 | 74739 | 109686
6 | 24:22.37 | 3:24.00 | 109687 | 124986
7 | 27:46.37 | 6:28.60 | 124987 | 154146


Характеристики диапазона извлечения и сообщения об ошибках

Выбранный диапазон

Имя файла Y:\Музыка\Silver Mountain\1986 Hibiya ~ Live In Japan '85\Silver Mountain - Hibiya ~ Live In Japan '85 [APCY-8022].wav

Пиковый уровень 100.0 %
Качество диапазона 99.9 %
CRC копии 2C5E1B8E
Копирование... OK

Ошибок не произошло


AccurateRip: сводка

Трек 1 точное извлечение (доверие 1) [975253EA]
Трек 2 точное извлечение (доверие 1) [41986003]
Трек 3 точное извлечение (доверие 1) [7CD421BD]
Трек 4 точное извлечение (доверие 1) [A86B0C9F]
Трек 5 точное извлечение (доверие 1) [2939B920]
Трек 6 точное извлечение (доверие 1) [195FE360]
Трек 7 точное извлечение (доверие 1) [880CDD49]

Все треки извлечены точно

Конец отчёта


Состав:
Christer Mentzer: Vocals
Jonas Hansson: Guitar, vocals
Per Stadin: Bass
Mårten Hedener: Drums
Mats Olausson: Keyboards

APCY-8022

_________________
Витасу до Даймонда как Алсу до Руссоса | При переразмещении - спрашивать разрешение!!


Top
 Profile  
 
 
PostPosted: 28 Oct 2010 
А может смените мне статус?..
User avatar
Joined: 28 Oct 2009
Posts: 662
Lоcаtion: Sweden
Age: 31
Name: Emil
Badass post! thanks :thanx:

_________________
http://strappadometalblog.blogspot.com | http://heavymetalrarities.com/forum


Top
 Profile E-mail  
 
 
PostPosted: 28 Oct 2010 
ыыыы
User avatar
Joined: 17 May 2009
Posts: 952
Lоcаtion: Пушкино, МО
Age: 39
Name: Дмитрий
Strappado
:true: This guys from your Motherland!! :blum:

_________________
Витасу до Даймонда как Алсу до Руссоса | При переразмещении - спрашивать разрешение!!


Top
 Profile  
 
 
PostPosted: 28 Oct 2010 
дядя Миша
User avatar
Joined: 17 Oct 2008
Posts: 3053
Lоcаtion: USSR
Age: 56
Name: Khy
Yeahh! Thanks Dimon! It,s rare product!
Аригато короче......


Last edited by VARVAAR on 28 Oct 2010, edited 1 time in total.

Top
 Profile  
 
 
PostPosted: 28 Oct 2010 
А может смените мне статус?..
User avatar
Joined: 28 Oct 2009
Posts: 662
Lоcаtion: Sweden
Age: 31
Name: Emil
;) Yeah they sure is! I had it but in a very bad quality (128kbps) so thanks a lot for the lossless rip!

_________________
http://strappadometalblog.blogspot.com | http://heavymetalrarities.com/forum


Top
 Profile E-mail  
 
 
PostPosted: 28 Oct 2010 
Персональный статус
Joined: 14 May 2010
Posts: 236
Age: 36
Name: Денис
VARVAAR wrote:
Yeahh! Tnanks Dimon! It,s rare product!

:nunu:


Top
 Profile  
 
 
PostPosted: 28 Oct 2010 
ыыыы
User avatar
Joined: 17 May 2009
Posts: 952
Lоcаtion: Пушкино, МО
Age: 39
Name: Дмитрий
VARVAAR
Дядь Миш!! чего-то с кодировкой у тебя! )))

_________________
Витасу до Даймонда как Алсу до Руссоса | При переразмещении - спрашивать разрешение!!


Top
 Profile  
 
Display posts from previous:  Sort by  
Post new topic Reply to topic  [ 7 posts ] 

All times are UTC + 3 hours


Who is online

Users browsing this forum: No registered users and 1 guest


You cannot post new topics in this forum
You cannot reply to topics in this forum
You cannot edit your posts in this forum
You cannot delete your posts in this forum
You cannot post attachments in this forum

Search for:
Яндекс.Метрика
Powered by phpBB © 2000, 2002, 2005, 2007 phpBB Group