\m/ 80's metal \m/

Информационно-аналитический форум "80 см пыли" (In Search We Trust) "У нас никто никуда не спешит"
Железнодорожная биржа - RailAgent
It is currently 23 Jul 2018

All times are UTC + 3 hours

Spoiler
Chat - temporary registration for foreign users (please leave your application here)







Post new topic Reply to topic  [ 14 posts ] 
Author Message
 
PostPosted: 13 Oct 2010 
Power Metal Maniac
User avatar
Joined: 09 Aug 2008
Posts: 6197
Lоcаtion: Москва
Age: 40
Name: Егор
Savage Grace
Master Of Disguise / The Dominatress
Reissued 2010

Жанр: Speed/Power Metal
Годы выхода альбомов: 1985 / 1983
Год выпуска диска: 2010
Страна: USA
Аудио кодек: APE
Тип рипа: image+.cue+scans
Битрейт аудио: lossless
Продолжительность: 01:15:29
Релиз: собственный

Доп. информация: переиздание двух первых релизов Savage Grace (альбом "Master Of Disguise" и EP "The Dominatress") на одном диске. В качестве бонуса прилагаются четыре демо-трека 1982-го и 1984-го годов.

Image

Треклист:
"Master Of Disguise", 1985
1. Lion's Roar
2. Bound to Be Free
3. Fear My Way
4. Sins of the Damned
5. Into the Fire
6. Master of Disguise
7. Betrayer
8. Sons of Iniquity
9. No One Left to Blame

"The Dominatress" EP, 1983
10. Fight for Your Life
11. Curse the Night
12. Dominatress, The
13. Live to Burn
14. Too Young to Die

Демо-треки
15. Scepters of Deceit (Demo '82)
16. Curse the Night (Demo '82)
17. Genghis Khan (Demo '82)
18. No One Left to Blame (Demo '84)

куй
Exact Audio Copy V0.99 prebeta 5 from 4. May 2009

EAC extraction logfile from 19. September 2010, 18:56

Savage Grace / Master of Disguise \ The Dominatress

Used drive : HL-DT-STDVDRAM GH22NS50 Adapter: 3 ID: 0

Read mode : Secure
Utilize accurate stream : Yes
Defeat audio cache : Yes
Make use of C2 pointers : No

Read offset correction : 667
Overread into Lead-In and Lead-Out : No
Fill up missing offset samples with silence : Yes
Delete leading and trailing silent blocks : No
Null samples used in CRC calculations : Yes
Used interface : Native Win32 interface for Win NT & 2000

Used output format : Internal WAV Routines
Sample format : 44.100 Hz; 16 Bit; Stereo


TOC of the extracted CD

Track | Start | Length | Start sector | End sector
---------------------------------------------------------
1 | 0:00.00 | 1:01.42 | 0 | 4616
2 | 1:01.42 | 4:23.26 | 4617 | 24367
3 | 5:24.68 | 4:22.21 | 24368 | 44038
4 | 9:47.14 | 4:17.64 | 44039 | 63377
5 | 14:05.03 | 3:29.05 | 63378 | 79057
6 | 17:34.08 | 3:59.73 | 79058 | 97055
7 | 21:34.06 | 4:56.47 | 97056 | 119302
8 | 26:30.53 | 4:39.28 | 119303 | 140255
9 | 31:10.06 | 4:10.70 | 140256 | 159075
10 | 35:21.01 | 4:31.48 | 159076 | 179448
11 | 39:52.49 | 5:36.20 | 179449 | 204668
12 | 45:28.69 | 4:21.41 | 204669 | 224284
13 | 49:50.35 | 3:32.13 | 224285 | 240197
14 | 53:22.48 | 5:12.34 | 240198 | 263631
15 | 58:35.07 | 3:41.49 | 263632 | 280255
16 | 62:16.56 | 5:39.26 | 280256 | 305706
17 | 67:56.07 | 3:19.07 | 305707 | 320638
18 | 71:15.14 | 4:13.66 | 320639 | 339679


Range status and errors

Selected range

Filename F:\Temp\Savage Grace - Master of Disguise- Dominatress\Savage Grace - Master of Disguise The Dominatress.wav

Peak level 100.0 %
Range quality 100.0 %
Copy CRC 1236096D
Copy OK

No errors occurred


AccurateRip summary

Track 1 accurately ripped (confidence 2) [5ABADCF8]
Track 2 accurately ripped (confidence 2) [4FB43838]
Track 3 accurately ripped (confidence 2) [EE0B0037]
Track 4 accurately ripped (confidence 2) [86C448E0]
Track 5 accurately ripped (confidence 2) [3FC0161D]
Track 6 accurately ripped (confidence 2) [48F454DC]
Track 7 accurately ripped (confidence 2) [37A38B9D]
Track 8 accurately ripped (confidence 2) [81E0E506]
Track 9 accurately ripped (confidence 2) [8E24258B]
Track 10 accurately ripped (confidence 2) [C7334416]
Track 11 accurately ripped (confidence 2) [6A0E9376]
Track 12 accurately ripped (confidence 2) [70782DD3]
Track 13 accurately ripped (confidence 2) [82100F9B]
Track 14 accurately ripped (confidence 2) [C9BBBC53]
Track 15 accurately ripped (confidence 2) [0FDFEEC6]
Track 16 accurately ripped (confidence 2) [46A55BA6]
Track 17 accurately ripped (confidence 2) [C4CA351A]
Track 18 accurately ripped (confidence 2) [6B3E769E]

All tracks accurately ripped

End of status report


Народ , 585 Mb

_________________
Long Live Metal!


Top
 Profile  
 
 
PostPosted: 13 Oct 2010 
спирт 100%
User avatar
Joined: 22 Sep 2008
Posts: 4247
Age: 47
Name: Саня
Егор,Спасибо! :thanx:


Top
 Profile  
 
 
PostPosted: 14 Oct 2010 
metallpaparazzy
User avatar
Joined: 20 Dec 2009
Posts: 674
Lоcаtion: Днепропетровск
Age: 43
Name: Геннадий
:thanx: заслухаю
EG Power wrote:
Релиз: собственный

ты че, свой лэйбл сварганил? :shok:


Top
 Profile E-mail  
 
 
PostPosted: 14 Oct 2010 
Power Metal Maniac
User avatar
Joined: 09 Aug 2008
Posts: 6197
Lоcаtion: Москва
Age: 40
Name: Егор
metallroll
хыы, имеется в виду рип, сканы и тд я сделал сам (с собственного диска ;) )

_________________
Long Live Metal!


Top
 Profile  
 
 
PostPosted: 19 Oct 2010 
Анатолий
User avatar
Joined: 18 Oct 2008
Posts: 3066
Lоcаtion: Армавир
Age: 41
Name: Анатолий
EG Power

Спасибо большое, Егор! :thanx: Давно жду... и второго тоже. ;) :oops: :true:


Top
 Profile E-mail  
 
 
PostPosted: 25 Dec 2010 
Хиппей (support team)
User avatar
Joined: 30 Jul 2007
Posts: 105221
Lоcаtion: Киев (Kyiv, UA)
Age: 45
Name: Andrey
Savage Grace - 1983-1985 - Master Of Disguise - The Dominatress (reissue 2010) [flac]

Thanx to Exploded by MMT :thanx:

MultiUp l Narod

log
Exact Audio Copy V0.99 prebeta 5 from 4. May 2009

EAC extraction logfile from 23. July 2010, 21:35

Savage Grace / Master Of Disguise - The Dominatress

Used drive : Optiarc DVD RW AD-7240S Adapter: 0 ID: 0

Read mode : Secure
Utilize accurate stream : Yes
Defeat audio cache : Yes
Make use of C2 pointers : No

Read offset correction : 48
Overread into Lead-In and Lead-Out : No
Fill up missing offset samples with silence : Yes
Delete leading and trailing silent blocks : No
Null samples used in CRC calculations : No
Used interface : Installed external ASPI interface

Used output format : User Defined Encoder
Selected bitrate : 32 kBit/s
Quality : High
Add ID3 tag : No
Command line compressor : C:\FLAC.EXE
Additional command line options : -6 -V %s


TOC of the extracted CD

Track | Start | Length | Start sector | End sector
---------------------------------------------------------
1 | 0:00.00 | 1:01.42 | 0 | 4616
2 | 1:01.42 | 4:23.26 | 4617 | 24367
3 | 5:24.68 | 4:22.21 | 24368 | 44038
4 | 9:47.14 | 4:17.64 | 44039 | 63377
5 | 14:05.03 | 3:29.05 | 63378 | 79057
6 | 17:34.08 | 3:59.73 | 79058 | 97055
7 | 21:34.06 | 4:56.47 | 97056 | 119302
8 | 26:30.53 | 4:39.28 | 119303 | 140255
9 | 31:10.06 | 4:10.70 | 140256 | 159075
10 | 35:21.01 | 4:31.48 | 159076 | 179448
11 | 39:52.49 | 5:36.20 | 179449 | 204668
12 | 45:28.69 | 4:21.41 | 204669 | 224284
13 | 49:50.35 | 3:32.13 | 224285 | 240197
14 | 53:22.48 | 5:12.34 | 240198 | 263631
15 | 58:35.07 | 3:41.49 | 263632 | 280255
16 | 62:16.56 | 5:39.26 | 280256 | 305706
17 | 67:56.07 | 3:19.07 | 305707 | 320638
18 | 71:15.14 | 4:13.66 | 320639 | 339679


Range status and errors

Selected range

Filename Z:\Savage Grace - Master Of Disguise - The Dominatress.wav

Peak level 100.0 %
Range quality 100.0 %
Copy CRC 385F6C55
Copy OK

No errors occurred


AccurateRip summary

Track 1 accurately ripped (confidence 1) [5ABADCF8]
Track 2 accurately ripped (confidence 1) [4FB43838]
Track 3 accurately ripped (confidence 1) [EE0B0037]
Track 4 accurately ripped (confidence 1) [86C448E0]
Track 5 accurately ripped (confidence 1) [3FC0161D]
Track 6 accurately ripped (confidence 1) [48F454DC]
Track 7 accurately ripped (confidence 1) [37A38B9D]
Track 8 accurately ripped (confidence 1) [81E0E506]
Track 9 accurately ripped (confidence 1) [8E24258B]
Track 10 accurately ripped (confidence 1) [C7334416]
Track 11 accurately ripped (confidence 1) [6A0E9376]
Track 12 accurately ripped (confidence 1) [70782DD3]
Track 13 accurately ripped (confidence 1) [82100F9B]
Track 14 accurately ripped (confidence 1) [C9BBBC53]
Track 15 accurately ripped (confidence 1) [0FDFEEC6]
Track 16 accurately ripped (confidence 1) [46A55BA6]
Track 17 accurately ripped (confidence 1) [C4CA351A]
Track 18 accurately ripped (confidence 1) [6B3E769E]

All tracks accurately ripped

End of status report


cue
REM GENRE "Speed Metal"
REM DATE 2010
REM DISCID 1211B112
REM COMMENT "ExactAudioCopy v0.99pb5"
PERFORMER "Savage Grace"
TITLE "Master Of Disguise - The Dominatress"
FILE "Savage Grace - Master Of Disguise - The Dominatress.flac" WAVE
TRACK 01 AUDIO
TITLE "Lion's Roar"
PERFORMER "Savage Grace"
INDEX 01 00:00:00
TRACK 02 AUDIO
TITLE "Bound To Be Free"
PERFORMER "Savage Grace"
INDEX 01 01:01:42
TRACK 03 AUDIO
TITLE "Fear My Way"
PERFORMER "Savage Grace"
INDEX 01 05:24:68
TRACK 04 AUDIO
TITLE "Sins Of The Damned"
PERFORMER "Savage Grace"
INDEX 01 09:47:14
TRACK 05 AUDIO
TITLE "Into The Fire"
PERFORMER "Savage Grace"
INDEX 01 14:05:03
TRACK 06 AUDIO
TITLE "Master Of Disguise"
PERFORMER "Savage Grace"
INDEX 01 17:34:08
TRACK 07 AUDIO
TITLE "Betrayer"
PERFORMER "Savage Grace"
INDEX 01 21:34:06
TRACK 08 AUDIO
TITLE "Sons Of Inquity"
PERFORMER "Savage Grace"
INDEX 01 26:30:53
TRACK 09 AUDIO
TITLE "No One Left To Blame"
PERFORMER "Savage Grace"
INDEX 01 31:10:06
TRACK 10 AUDIO
TITLE "Fight For Your Life"
PERFORMER "Savage Grace"
INDEX 01 35:21:01
TRACK 11 AUDIO
TITLE "Curse The Night"
PERFORMER "Savage Grace"
INDEX 01 39:52:49
TRACK 12 AUDIO
TITLE "The Dominatress"
PERFORMER "Savage Grace"
INDEX 01 45:28:69
TRACK 13 AUDIO
TITLE "Live To Burn"
PERFORMER "Savage Grace"
INDEX 01 49:50:35
TRACK 14 AUDIO
TITLE "Too Young To Die"
PERFORMER "Savage Grace"
INDEX 01 53:22:48
TRACK 15 AUDIO
TITLE "Scepters Of Deceit (Demo'82)"
PERFORMER "Savage Grace"
INDEX 01 58:35:07
TRACK 16 AUDIO
TITLE "Curse The Night (Demo'82)"
PERFORMER "Savage Grace"
INDEX 01 62:16:56
TRACK 17 AUDIO
TITLE "Genghis Khan (Demo'82)"
PERFORMER "Savage Grace"
INDEX 01 67:56:07
TRACK 18 AUDIO
TITLE "No One Left To Blame (Demo'84)"
PERFORMER "Savage Grace"
INDEX 01 71:15:14

_________________


Top
 Profile E-mail  
 
 
PostPosted: 26 Dec 2010 
Power Metal Maniac
User avatar
Joined: 09 Aug 2008
Posts: 6197
Lоcаtion: Москва
Age: 40
Name: Егор
Андрей, я уже выкладывал это издание, рипал с собственного диска:
viewtopic.php?f=192&t=8760

_________________
Long Live Metal!


Top
 Profile  
 
 
PostPosted: 26 Dec 2010 
дядя Миша
User avatar
Joined: 17 Oct 2008
Posts: 3035
Lоcаtion: USSR
Age: 55
Name: Khy
:fingal: :fingal:


Top
 Profile  
 
 
PostPosted: 26 Dec 2010 
Анатолий
User avatar
Joined: 18 Oct 2008
Posts: 3066
Lоcаtion: Армавир
Age: 41
Name: Анатолий
EG Power

Егор, второй бы диск рипнуть... :fingal: :cry: :oops:


Top
 Profile E-mail  
 
 
PostPosted: 26 Dec 2010 
Хиппей (support team)
User avatar
Joined: 30 Jul 2007
Posts: 105221
Lоcаtion: Киев (Kyiv, UA)
Age: 45
Name: Andrey
EG Power wrote:
Андрей, я уже выкладывал это издание, рипал с собственного диска:

А еще не дошел до него :shok: 7 страниц на форуме осталось прочитать :fingal:
Ок, спасибо, сейчас слеплю топики :thanx:

Privateer wrote:
Егор, второй бы диск рипнуть...

О, присоединяюсь к просьбе, если он имеется :dance:

_________________


Top
 Profile E-mail  
 
 
PostPosted: 26 Dec 2010 
Power Metal Maniac
User avatar
Joined: 09 Aug 2008
Posts: 6197
Lоcаtion: Москва
Age: 40
Name: Егор
диск имеется, времени нет((( но когда-нибудь сделаю

_________________
Long Live Metal!


Top
 Profile  
 
 
PostPosted: 26 Dec 2010 
Хиппей (support team)
User avatar
Joined: 30 Jul 2007
Posts: 105221
Lоcаtion: Киев (Kyiv, UA)
Age: 45
Name: Andrey
EG Power wrote:
но когда-нибудь сделаю

Урааа!! (заранее спасибо). :thanx:

_________________


Top
 Profile E-mail  
 
 
PostPosted: 20 Jan 2011 
Зарегился вот...
Joined: 14 Jan 2011
Posts: 6
Lоcаtion: thailand
Name: motherfucker
Thanks a lot for the great post...


Top
 Profile E-mail  
 
 
PostPosted: 20 Jan 2011 
Thrasher
User avatar
Joined: 07 Oct 2007
Posts: 2755
Lоcаtion: Russia, Moscow
Age: 34
Name: Drunk & Evil
както я профтыкал, СПАСИБО!!

_________________
ВОДКА, БАБЫ И БЛЮЗ / 40° till death... :bodun:
One time we saw some hookers, but when we got closer, we realised it was Mötley Crüe. ©


Top
 Profile  
 
Display posts from previous:  Sort by  
Post new topic Reply to topic  [ 14 posts ] 

All times are UTC + 3 hours


Who is online

Users browsing this forum: No registered users and 1 guest


You cannot post new topics in this forum
You cannot reply to topics in this forum
You cannot edit your posts in this forum
You cannot delete your posts in this forum
You cannot post attachments in this forum

Search for:
Яндекс.Метрика
Powered by phpBB © 2000, 2002, 2005, 2007 phpBB Group