\m/ 80's metal \m/

Информационно-аналитический форум "80 см пыли" (In Search We Trust) "У нас никто никуда не спешит"
Железнодорожная биржа - RailAgent
It is currently 23 Jul 2018

All times are UTC + 3 hours

Spoiler
Chat - temporary registration for foreign users (please leave your application here)







Post new topic Reply to topic  [ 13 posts ] 
Author Message
 
PostPosted: 10 Oct 2010 
Old Time Rock`n`Roll
User avatar
Joined: 23 Jun 2008
Posts: 3342
Lоcаtion: г.Ульяновск
Age: 39
Name: Константин
Santa – Reencarnacion (1984)

Image

Year: 1984
Style: Heavy Metal
Country: Spain
Format: FLAC (image+cue+log) + scans & mp3-320
Size: 265 Mb + 91 Mb

Tracklist
01. Reencarnación (04:48)
02. Fuera en la Calle (04:14)
03. Héroe de Papel (04:06)
04. Santa (01:53)
05. Cuestión de honor (04:07)
06. Al lado del Diablo (03:48)
07. Mis noches tienen R'n'R (03:21)
08. Desertor (05:00)
09. Sobrevivir (06:54)

TPT – 38:32

Line-Up:
Azucena - Vocals
Jeronimo Ramiro - Guitars
Julio Diaz - Bass
Bernardo Ballester - Drums

Album Credits:
Produced: Fernando Sanchez, Juan Luis Serrano

Log
EAC extraction logfile from 27. January 2007, 20:26 for CD
Santa / Reencarnaciуn

Used drive : LITE-ON DVDRW SOHW-832S Adapter: 0 ID: 0
Read mode : Secure with NO C2, accurate stream, disable cache
Read offset correction : 12
Overread into Lead-In and Lead-Out : No

Used output format : C:\Archivos de programa\Exact Audio Copy\wavpack.exe (User Defined Encoder)
32 kBit/s
Additional command line options : -hm -w "Cuesheet=@*.cue" -w "Artist=%a" -w "Album=%g" -w "Year=%y" -w "Genre=%m" %s %d

Other options :
Fill up missing offset samples with silence : Yes
Delete leading and trailing silent blocks : No
Installed external ASPI interface


Range status and errors
Selected range
Filename F:\SANTA.[1984-2002].[CD].Reencarnaciуn.[EAC-ZIP.WV].By.Luchador.[MeTaLMaDNess.TeaM]\CDImage.wv.wav

Peak level 100.0 %
Range quality 100.0 %
CRC 27A41806
Copy OK

No errors occured

End of status report


Cue
PERFORMER "Santa"
TITLE "Reencarnaciуn"
FILE "CDImage.wv" WAVE
TRACK 01 AUDIO
TITLE "Reencarnaciуn"
PERFORMER "Santa"
INDEX 01 00:00:00
TRACK 02 AUDIO
TITLE "Fuera en la calle"
PERFORMER "Santa"
INDEX 01 04:55:22
TRACK 03 AUDIO
TITLE "Hйroe de papel"
PERFORMER "Santa"
INDEX 01 09:13:52
TRACK 04 AUDIO
TITLE "Santa"
PERFORMER "Santa"
INDEX 01 13:22:72
TRACK 05 AUDIO
TITLE "Cuestiуn de honor"
PERFORMER "Santa"
INDEX 01 15:16:50
TRACK 06 AUDIO
TITLE "Al lado del diablo"
PERFORMER "Santa"
INDEX 01 19:27:54
TRACK 07 AUDIO
TITLE "Mil noches tienen rock 'n' roll"
PERFORMER "Santa"
INDEX 01 23:21:65
TRACK 08 AUDIO
TITLE "Desertor"
PERFORMER "Santa"
INDEX 01 26:40:42
TRACK 09 AUDIO
TITLE "Sobrevivir"
PERFORMER "Santa"
INDEX 01 31:44:05


FLAC
megaupload-FLAC
narod-FLAC


mp3-320
megaupload-320

Вторичный, но вполне крепко сделанный хэви из Испании на британской основе. Большей частью ощутимо влияние NWOBHM и Iron Maiden, но встречаются ходы из Judas Priest, ну и из-за женского вокала есть небольшие параллели с Warlock.
Испания… 1984 год… Рауль пошел в первый класс… Он ничего не знал про хэви-метал, косухи и цепи, поэтому и выбрал другую профессию, мечтая о белой футболке с королевским гербом …
Релиз MMT, автор рипа Luchador.


Top
 Profile  
 
 
PostPosted: 10 Oct 2010 
Хиппей (support team)
User avatar
Joined: 30 Jul 2007
Posts: 105233
Lоcаtion: Киев (Kyiv, UA)
Age: 45
Name: Andrey
:true: Спасибо :thanx:

Костя, а мимо раздела попал :pardon:

_________________


Top
 Profile E-mail  
 
 
PostPosted: 11 Oct 2010 
А может смените мне статус?..
Joined: 03 Jul 2009
Posts: 773
Lоcаtion: Serbia
Name: Laki
Fantastic cd. Their best


Top
 Profile E-mail  
 
 
PostPosted: 03 Jan 2011 
Пионэръ
User avatar
Joined: 08 Nov 2010
Posts: 43
Lоcаtion: Россия
Name: Юрий
забираю!


Top
 Profile E-mail  
 
 
PostPosted: 02 Aug 2011 
ТрэшЭрос
User avatar
Joined: 18 Jul 2011
Posts: 2296
Lоcаtion: Гулькевичи
Age: 43
Name: Александр
:thanx:

_________________
Thrash no trash!!!


Top
 Profile E-mail  
 
 
PostPosted: 22 Jun 2012 
Хиппей (support team)
User avatar
Joined: 30 Jul 2007
Posts: 105233
Lоcаtion: Киев (Kyiv, UA)
Age: 45
Name: Andrey
Santa - 1984 - Reencarnacion [flac]

Image

Сорри, еще одна быстрая заготовка. А то могу забыть завтра запостить...
Завтра же инфу прочую добавлю. Альбом весьма неплох, хоть группа и исполняет лирику на нелюбимом мне испанском :oops:

MultiUp l Narod

Стырено с rutracker.org, которые в свою очередь спёрли с МММТ :thanx:

log
EAC extraction logfile from 27. January 2007, 20:26 for CD
Santa / Reencarnaciуn

Used drive : LITE-ON DVDRW SOHW-832S Adapter: 0 ID: 0
Read mode : Secure with NO C2, accurate stream, disable cache
Read offset correction : 12
Overread into Lead-In and Lead-Out : No

Used output format : C:\Archivos de programa\Exact Audio Copy\wavpack.exe (User Defined Encoder)
32 kBit/s
Additional command line options : -hm -w "Cuesheet=@*.cue" -w "Artist=%a" -w "Album=%g" -w "Year=%y" -w "Genre=%m" %s %d

Other options :
Fill up missing offset samples with silence : Yes
Delete leading and trailing silent blocks : No
Installed external ASPI interface


Range status and errors
Selected range
Filename F:\SANTA.[1984-2002].[CD].Reencarnaciуn.[EAC-ZIP.WV].By.Luchador.[MeTaLMaDNess.TeaM]\CDImage.wv.wav

Peak level 100.0 %
Range quality 100.0 %
CRC 27A41806
Copy OK

No errors occured

End of status report

cue
PERFORMER "Santa"
TITLE "Reencarnaciуn"
FILE "CDImage.wv" WAVE
TRACK 01 AUDIO
TITLE "Reencarnaciуn"
PERFORMER "Santa"
INDEX 01 00:00:00
TRACK 02 AUDIO
TITLE "Fuera en la calle"
PERFORMER "Santa"
INDEX 01 04:55:22
TRACK 03 AUDIO
TITLE "Hйroe de papel"
PERFORMER "Santa"
INDEX 01 09:13:52
TRACK 04 AUDIO
TITLE "Santa"
PERFORMER "Santa"
INDEX 01 13:22:72
TRACK 05 AUDIO
TITLE "Cuestiуn de honor"
PERFORMER "Santa"
INDEX 01 15:16:50
TRACK 06 AUDIO
TITLE "Al lado del diablo"
PERFORMER "Santa"
INDEX 01 19:27:54
TRACK 07 AUDIO
TITLE "Mil noches tienen rock 'n' roll"
PERFORMER "Santa"
INDEX 01 23:21:65
TRACK 08 AUDIO
TITLE "Desertor"
PERFORMER "Santa"
INDEX 01 26:40:42
TRACK 09 AUDIO
TITLE "Sobrevivir"
PERFORMER "Santa"
INDEX 01 31:44:05

spectrum
Image

_________________


Top
 Profile E-mail  
 
 
PostPosted: 22 Jun 2012 
***


Last edited by Вася_металлист_2012 on 14 Dec 2012, edited 1 time in total.

Top
  
 
 
PostPosted: 22 Jun 2012 
Хиппей (support team)
User avatar
Joined: 30 Jul 2007
Posts: 105233
Lоcаtion: Киев (Kyiv, UA)
Age: 45
Name: Andrey
Вася_металлист_2012 wrote:
Дооформить?

Не-не, спасибо, я сам =)

_________________


Top
 Profile E-mail  
 
 
PostPosted: 22 Jun 2012 
Old Time Rock`n`Roll
User avatar
Joined: 23 Jun 2008
Posts: 3342
Lоcаtion: г.Ульяновск
Age: 39
Name: Константин
viewtopic.php?f=192&t=8753


Top
 Profile  
 
 
PostPosted: 22 Jun 2012 
Хиппей (support team)
User avatar
Joined: 30 Jul 2007
Posts: 105233
Lоcаtion: Киев (Kyiv, UA)
Age: 45
Name: Andrey
:crazy: Спасибо, Костя :fingal: :pardon:

Слеплю через пару часиков

_________________


Top
 Profile E-mail  
 
 
PostPosted: 22 Jun 2012 
Хиппей (support team)
User avatar
Joined: 30 Jul 2007
Posts: 105233
Lоcаtion: Киев (Kyiv, UA)
Age: 45
Name: Andrey
oldrocker wrote:
ну и из-за женского вокала есть небольшие параллели с Warlock

:crazy: ...ппц, и снова я не узнал пол вокалистки по голосу... :shok: :esel: :esel: :esel:
Реально думал, что мучачос поёт :umnik:

_________________


Top
 Profile E-mail  
 
 
PostPosted: 22 Jun 2012 
Old Time Rock`n`Roll
User avatar
Joined: 23 Jun 2008
Posts: 3342
Lоcаtion: г.Ульяновск
Age: 39
Name: Константин
Старость - не радость :pardon:


Top
 Profile  
 
 
PostPosted: 22 Jun 2012 
Хиппей (support team)
User avatar
Joined: 30 Jul 2007
Posts: 105233
Lоcаtion: Киев (Kyiv, UA)
Age: 45
Name: Andrey
Не-не, это трезвость не норма джинн жизни :oops:

_________________


Top
 Profile E-mail  
 
Display posts from previous:  Sort by  
Post new topic Reply to topic  [ 13 posts ] 

All times are UTC + 3 hours


Who is online

Users browsing this forum: No registered users and 3 guests


You cannot post new topics in this forum
You cannot reply to topics in this forum
You cannot edit your posts in this forum
You cannot delete your posts in this forum
You cannot post attachments in this forum

Search for:
Яндекс.Метрика
Powered by phpBB © 2000, 2002, 2005, 2007 phpBB Group