\m/ 80's metal \m/

Информационно-аналитический форум "80 см пыли" (In Search We Trust) "У нас никто никуда не спешит"
Me For You - http://me-4u.com
It is currently 20 Nov 2018

All times are UTC + 3 hours

Spoiler
Chat - temporary registration for foreign users (please leave your application here)







Post new topic Reply to topic  [ 23 posts ]  Go to page 1, 2  Next
Author Message
 
PostPosted: 03 Oct 2010 
А может смените мне статус?..
User avatar
Joined: 17 Jan 2008
Posts: 869
Lоcаtion: Пенза
Age: 41
Name: Денис
Image

Line Up:

Mem Von Stein - Vocals
Sam Awry - Guitar
Jillian Ann La Boy - Bass
Ojayy - Drums

Recorded by Don Fury. Includes guest performances by members of Nunslaughter,
Crucified Mortals, and Terror of the Trees. Includes a video for "Intercepting
Triggers."


1. Angry Male Gods 04:36
2. Presence 03:24
3. Day Rat 02:42
4. Menacing Devils 03:27
5. Intercepting Daggers 03:45
6. Fallen Saint (Exumer Cover) 03:50
7. Broken Seals 03:25
8. The Circle Rises 03:38
9. Third Column 03:11
10. Incinerate Them 03:23


Top
 Profile  
 
 
PostPosted: 04 Oct 2010 
5cm
User avatar
Joined: 01 Mar 2009
Posts: 61
Name: Сергей
+1


Top
 Profile  
 
 
PostPosted: 04 Oct 2010 
Хиппей (support team)
User avatar
Joined: 30 Jul 2007
Posts: 108197
Lоcаtion: Киев (Kyiv, UA)
Age: 45
Name: Andrey
Год издания не ленитесь указывать.

А у Макса (overkiller) мож и этот альбом есть :vic:

_________________


Top
 Profile E-mail  
 
 
PostPosted: 05 Oct 2010 
Генеральный thrasher
User avatar
Joined: 03 Oct 2008
Posts: 3506
Lоcаtion: Ханты-Мансийский АО
Age: 43
Name: Сергей
Да.Надо Макса спросить.


Top
 Profile  
 
 
PostPosted: 08 Oct 2010 
А может смените мне статус?..
User avatar
Joined: 02 Feb 2009
Posts: 999
Lоcаtion: из Тулы
Age: 44
Name: Максим
не
мужики
такого нету

_________________
КМА


Top
 Profile  
 
 
PostPosted: 09 Oct 2010 
Хиппей (support team)
User avatar
Joined: 30 Jul 2007
Posts: 108197
Lоcаtion: Киев (Kyiv, UA)
Age: 45
Name: Andrey
Макс ответил, шо нету :pavlik:

Ну и норм, всплывёт когда-то где-то (альбом) :dance:

_________________


Top
 Profile E-mail  
 
 
PostPosted: 29 Jan 2011 
А может смените мне статус?..
User avatar
Joined: 17 Jan 2008
Posts: 869
Lоcаtion: Пенза
Age: 41
Name: Денис
Нашолся...Далой запрос :zo:


Top
 Profile  
 
 
PostPosted: 30 Apr 2012 
Работнечег
User avatar
Joined: 28 Aug 2007
Posts: 5534
Lоcаtion: г. Москва
Age: 29
Name: Дима
Закрываем!


Top
 Profile E-mail  
 
 
PostPosted: 01 May 2012 
Хиппей (support team)
User avatar
Joined: 30 Jul 2007
Posts: 108197
Lоcаtion: Киев (Kyiv, UA)
Age: 45
Name: Andrey
А ссылочка где, например?

_________________


Top
 Profile E-mail  
 
 
PostPosted: 01 May 2012 
Я набрал 1000 сообщений!
Joined: 24 Oct 2009
Posts: 2098
Lоcаtion: Оренбург
Age: 55
Name: Юра
Scatterbrain wrote:
Год издания не ленитесь указывать.

Да, да... они ещё и стиль не указывают... :nunu:

_________________
:dash: I am happy!


Top
 Profile E-mail  
 
 
PostPosted: 28 May 2012 
Хиппей (support team)
User avatar
Joined: 30 Jul 2007
Posts: 108197
Lоcаtion: Киев (Kyiv, UA)
Age: 45
Name: Andrey
И ссылки на лося. Типа это редкось :fingal:

http://moole.ru/blog/denak/news/264240- ... -2006.html

_________________


Top
 Profile E-mail  
 
 
PostPosted: 29 May 2012 
Хиппей (support team)
User avatar
Joined: 30 Jul 2007
Posts: 108197
Lоcаtion: Киев (Kyiv, UA)
Age: 45
Name: Andrey
Sun Descends - 2006 - Incinerating The Meek [flac]

Image

Genre: Speed Thrash Metal
Location: USA
Format: flac + cue + log + scans
Size: 548 Mb


Line-up:

Mem Von Stein - vocals
Sam Awry - guitar
Jillian Ann La Boy - bass
Ojayy - drums

    1. Angry Male Gods - 04:36
    2. Presence - 03:24
    3. Day Rat - 02:42
    4. Menacing Devils - 03:27
    5. Intercepting Daggers - 03:45
    6. Fallen Saint (Exumer Cover) - 03:50
    7. Broken Seals - 03:25
    8. The Circle Rises - 03:38
    9. Third Column - 03:11
    10. Incinerate Them - 03:23

    TPT: 37:58

mirror: MultiUp l Narod

log
Exact Audio Copy V1.0 beta 1 from 15. November 2010

EAC extraction logfile from 29. December 2010, 2:44

SUN DESCENDS / Incinerating The Meek

Used drive : Optiarc DVD RW AD-7203A Adapter: 0 ID: 1

Read mode : Secure
Utilize accurate stream : Yes
Defeat audio cache : Yes
Make use of C2 pointers : No

Read offset correction : 48
Overread into Lead-In and Lead-Out : No
Fill up missing offset samples with silence : Yes
Delete leading and trailing silent blocks : No
Null samples used in CRC calculations : Yes
Used interface : Native Win32 interface for Win NT & 2000

Used output format : User Defined Encoder
Selected bitrate : 1024 kBit/s
Quality : High
Add ID3 tag : Yes
Command line compressor : C:\Program Files (x86)\Exact Audio Copy 1.0b\FLAC\FLAC.EXE
Additional command line options : -6 -V -T "ARTIST=%a" -T "TITLE=%t" -T "ALBUM=%g" -T "DATE=%y" -T "TRACKNUMBER=%n" -T "GENRE=%m" -T "COMMENT=%e" %j--picture="%i"%j %s -o %d


TOC of the extracted CD

Track | Start | Length | Start sector | End sector
---------------------------------------------------------
1 | 0:00.00 | 4:36.32 | 0 | 20731
2 | 4:36.32 | 3:24.41 | 20732 | 36072
3 | 8:00.73 | 2:42.49 | 36073 | 48271
4 | 10:43.47 | 3:27.49 | 48272 | 63845
5 | 14:11.21 | 3:45.39 | 63846 | 80759
6 | 17:56.60 | 3:50.05 | 80760 | 98014
7 | 21:46.65 | 3:24.74 | 98015 | 113388
8 | 25:11.64 | 3:38.66 | 113389 | 129804
9 | 28:50.55 | 3:11.44 | 129805 | 144173
10 | 32:02.24 | 3:23.01 | 144174 | 159399
11 | 37:57.25 | 25:29.48 | 170800 | 285522


Range status and errors

Selected range

Filename H:\DEN@K\MeTaLMaDNeSS\SUN DESCENDS - Incinerating The Meek 2006\SUN DESCENDS - Incinerating The Meek.wav

Peak level 100.0 %
Extraction speed 2.7 X
Range quality 100.0 %
Test CRC 9AF2EFA3
Copy CRC 9AF2EFA3
Copy OK

No errors occurred


AccurateRip summary

Track 1 accurately ripped (confidence 1) [51E1253C]
Track 2 accurately ripped (confidence 1) [1DCCD9E7]
Track 3 accurately ripped (confidence 1) [1B280BF9]
Track 4 accurately ripped (confidence 1) [93C5BD75]
Track 5 accurately ripped (confidence 1) [71F5F1DE]
Track 6 accurately ripped (confidence 1) [5712C7A1]
Track 7 accurately ripped (confidence 1) [4A5FB2DC]
Track 8 accurately ripped (confidence 1) [AB855174]
Track 9 accurately ripped (confidence 1) [1C9DAD57]
Track 10 accurately ripped (confidence 1) [355A1ECA]

All tracks accurately ripped

End of status report

==== Log checksum D6E4DFE61627357052C2C421D7B275C63E4607A1FA65BD04CC48DAFDD34F20E4 ====

cue
REM GENRE "Thrash Metal"
REM DATE 2006
REM DISCID 970EDE0B
REM COMMENT "ExactAudioCopy v1.0b1"
PERFORMER "SUN DESCENDS"
TITLE "Incinerating The Meek"
FILE "SUN DESCENDS - Incinerating The Meek.flac" WAVE
TRACK 01 AUDIO
TITLE "Angry Male Gods"
PERFORMER "SUN DESCENDS"
INDEX 01 00:00:00
TRACK 02 AUDIO
TITLE "Presence"
PERFORMER "SUN DESCENDS"
INDEX 01 04:36:32
TRACK 03 AUDIO
TITLE "Day Rat"
PERFORMER "SUN DESCENDS"
INDEX 01 08:00:73
TRACK 04 AUDIO
TITLE "Menacing Devils"
PERFORMER "SUN DESCENDS"
INDEX 01 10:43:47
TRACK 05 AUDIO
TITLE "Intercepting Daggers"
PERFORMER "SUN DESCENDS"
INDEX 01 14:11:21
TRACK 06 AUDIO
TITLE "Fallen Saint (Exumer Cover)"
PERFORMER "SUN DESCENDS"
INDEX 01 17:56:60
TRACK 07 AUDIO
TITLE "Broken Seals"
PERFORMER "SUN DESCENDS"
INDEX 01 21:46:65
TRACK 08 AUDIO
TITLE "The Circle Rises"
PERFORMER "SUN DESCENDS"
INDEX 01 25:11:64
TRACK 09 AUDIO
TITLE "Third Column"
PERFORMER "SUN DESCENDS"
INDEX 01 28:50:55
TRACK 10 AUDIO
TITLE "Incinerate Them"
PERFORMER "SUN DESCENDS"
INDEX 01 32:02:24

spectrum
Image

_________________


Top
 Profile E-mail  
 
 
PostPosted: 31 May 2012 
Хиппей (support team)
User avatar
Joined: 30 Jul 2007
Posts: 108197
Lоcаtion: Киев (Kyiv, UA)
Age: 45
Name: Andrey
Мдя... всё хорошо в этом альбоме, вот только очень уж велико влияние Slayer, звук очень вылизанный (компьютерный) и вокальные партии чуть ли не запрограммированные :(

6+/10

_________________


Top
 Profile E-mail  
 
 
PostPosted: 31 May 2012 
***


Last edited by Вася_металлист_2012 on 14 Dec 2012, edited 1 time in total.

Top
  
 
 
PostPosted: 03 Jun 2012 
Хиппей (support team)
User avatar
Joined: 30 Jul 2007
Posts: 108197
Lоcаtion: Киев (Kyiv, UA)
Age: 45
Name: Andrey
Вася_металлист_2012 wrote:
А че в бухту не переносите?

Упс. Забыл :oops:
Перебрасываю :dance:

_________________


Top
 Profile E-mail  
 
 
PostPosted: 05 Jun 2012 
ТрэшЭрос
User avatar
Joined: 18 Jul 2011
Posts: 2300
Lоcаtion: Гулькевичи
Age: 43
Name: Александр
Scatterbrain, :thanx:
Если докачаю :shok:
Image

:dash: то послушаю...

_________________
Thrash no trash!!!


Top
 Profile E-mail  
 
 
PostPosted: 05 Jun 2012 
Хиппей (support team)
User avatar
Joined: 30 Jul 2007
Posts: 108197
Lоcаtion: Киев (Kyiv, UA)
Age: 45
Name: Andrey
Да, вчера часов с 12 ночи Народ начал жудко тупить. Но вот твои 27 кб как раз вполне так себе норм скорость. Я заливал на меньшей.
Кста, Саш, удали из ДМ приблуду с рекламкой :crazy: Или тебе нравятся обои? :huh:

_________________


Top
 Profile E-mail  
 
 
PostPosted: 05 Jun 2012 
ТрэшЭрос
User avatar
Joined: 18 Jul 2011
Posts: 2300
Lоcаtion: Гулькевичи
Age: 43
Name: Александр
Scatterbrain wrote:
удали из ДМ приблуду с рекламкой

как? :oops:

_________________
Thrash no trash!!!


Top
 Profile E-mail  
 
 
PostPosted: 05 Jun 2012 
Хиппей (support team)
User avatar
Joined: 30 Jul 2007
Posts: 108197
Lоcаtion: Киев (Kyiv, UA)
Age: 45
Name: Andrey
Quote:
Инструменты - настройки - интерфейс - события. Потом последний пункт в открывшемся окне - снять галочку.

или
Quote:
инструменты > настройки > другие > настройки topdownloads > снять галочку с "получать новости о популярных файлах"

_________________


Top
 Profile E-mail  
 
 
PostPosted: 05 Jun 2012 
ТрэшЭрос
User avatar
Joined: 18 Jul 2011
Posts: 2300
Lоcаtion: Гулькевичи
Age: 43
Name: Александр
Scatterbrain wrote:
Я заливал на меньшей.

это шютко? :shok:
У знакомого 1 метр скорость :true:

_________________
Thrash no trash!!!


Top
 Profile E-mail  
 
Display posts from previous:  Sort by  
Post new topic Reply to topic  [ 23 posts ]  Go to page 1, 2  Next

All times are UTC + 3 hours


Who is online

Users browsing this forum: No registered users and 2 guests


You cannot post new topics in this forum
You cannot reply to topics in this forum
You cannot edit your posts in this forum
You cannot delete your posts in this forum
You cannot post attachments in this forum

Search for:
Яндекс.Метрика
Powered by phpBB © 2000, 2002, 2005, 2007 phpBB Group