\m/ 80's metal \m/

Информационно-аналитический форум "80 см пыли" (In Search We Trust) "У нас никто никуда не спешит"
Me For You - http://me-4u.com
It is currently 20 Nov 2018

All times are UTC + 3 hours

Spoiler
Chat - temporary registration for foreign users (please leave your application here)







Post new topic Reply to topic  [ 12 posts ] 
Author Message
 
PostPosted: 22 Sep 2010 
Генеральный thrasher
User avatar
Joined: 03 Oct 2008
Posts: 3507
Lоcаtion: Ханты-Мансийский АО
Age: 43
Name: Сергей
Image

Year:1990 (1999 Re-Issue)
Style:Heavy Metal
Country:U.S.A.
Audio:Flac+Cue+Log
Size:291Mb
Source:my CD
Label:Century Media

Line-Up:
Tommy Christ: Vocals
Glen Cummings: Guitars
Paul Nieder: Guitar
Guy Brogna: Bass
Mike Boyko: Drums

Tracklist:
1. Here Comes Trouble 03:54
2. Earache My Eye 02:46
3. That's That 03:57
4. I'm With Stupid 05:06
5. Down With The Ship(Slight Return) 02:28
6. Sonata #3 01:54
7. Mr. Johnson And The Juice Crew 01:54
8. Goodbye Freedom, Hello Mom 04:50
9. Outta Time 03:37
10. Don't Call Me Dude 05:14
11. Drunken Milkman 01:20

Cue
REM DISCID 7E08AF0B
REM COMMENT "ExactAudioCopy v0.99pb4"
PERFORMER "Scatterbrain"
TITLE "Here Comes Trouble"
FILE "Scatterbrain - Here Comes Trouble.flac" WAVE
TRACK 01 AUDIO
TITLE "Here Comes Trouble"
PERFORMER "Scatterbrain"
INDEX 01 00:00:00
TRACK 02 AUDIO
TITLE "Earache My Eye"
PERFORMER "Scatterbrain"
INDEX 00 03:54:19
INDEX 01 03:55:05
TRACK 03 AUDIO
TITLE "That's That"
PERFORMER "Scatterbrain"
INDEX 00 06:41:36
INDEX 01 06:42:34
TRACK 04 AUDIO
TITLE "I'm With Stupid"
PERFORMER "Scatterbrain"
INDEX 00 10:39:38
INDEX 01 10:39:58
TRACK 05 AUDIO
TITLE "Down With The Ship (Slight Return)"
PERFORMER "Scatterbrain"
INDEX 00 15:45:07
INDEX 01 15:45:33
TRACK 06 AUDIO
TITLE "Sonata #3"
PERFORMER "Scatterbrain"
INDEX 00 18:13:60
INDEX 01 18:15:12
TRACK 07 AUDIO
TITLE "Mr. Johnson And The Juice Crew"
PERFORMER "Scatterbrain"
INDEX 00 20:06:34
INDEX 01 20:08:22
TRACK 08 AUDIO
TITLE "Goodbye Freedom, Hello Mom"
PERFORMER "Scatterbrain"
INDEX 00 22:02:50
INDEX 01 22:03:68
TRACK 09 AUDIO
TITLE "Outta Time"
PERFORMER "Scatterbrain"
INDEX 01 26:53:12
TRACK 10 AUDIO
TITLE "Don't Call Me Dude"
PERFORMER "Scatterbrain"
INDEX 00 30:29:49
INDEX 01 30:30:03
TRACK 11 AUDIO
TITLE "Drunken Milkman"
PERFORMER "Scatterbrain"
INDEX 00 35:44:25
INDEX 01 35:45:15


Log
Exact Audio Copy V0.99 prebeta 4 from 23. January 2008

Отчёт EAC об извлечении, выполненном 22. сентября 2010, 13:28

Scatterbrain / Here Comes Trouble

Дисковод: TSSTcorpCDDVDW SH-S202N Adapter: 0 ID: 1

Режим чтения : Достоверность
Использование точного потока : Да
Отключение кэша аудио : Да
Использование указателей C2 : Нет

Коррекция смещения при чтении : 6
Способность читать области Lead-in и Lead-out : Нет
Заполнение пропущенных сэмплов тишиной : Да
Удаление блоков с тишиной в начале и конце : Нет
При вычислениях CRC использовались нулевые сэмплы : Да
Интерфейс : Установленный внешний ASPI-интерфейс

Выходной формат : Пользовательский кодировщик
Выбранный битрейт : 768 kBit/s
Качество : Высокий
Добавление ID3-тэга : Нет
Утилита сжатия : C:\Program Files\Exact Audio Copy\FLAC\FLAC.EXE
Дополнительные параметры : -6 -V -T "ARTIST=%a" -T "TITLE=%t" -T "ALBUM=%g" -T "DATE=%y" -T "TRACKNUMBER=%n" -T "GENRE=%m" -T "COMMENT=%e" %s -o %d


TOC извлечённого CD

Трек | Старт | Длительность | Начальный сектор | Конечный сектор
---------------------------------------------------------------------
1 | 0:00.00 | 3:55.05 | 0 | 17629
2 | 3:55.05 | 2:47.29 | 17630 | 30183
3 | 6:42.34 | 3:57.24 | 30184 | 47982
4 | 10:39.58 | 5:05.50 | 47983 | 70907
5 | 15:45.33 | 2:29.54 | 70908 | 82136
6 | 18:15.12 | 1:53.10 | 82137 | 90621
7 | 20:08.22 | 1:55.46 | 90622 | 99292
8 | 22:03.68 | 4:49.19 | 99293 | 120986
9 | 26:53.12 | 3:36.66 | 120987 | 137252
10 | 30:30.03 | 5:15.12 | 137253 | 160889
11 | 35:45.15 | 1:18.39 | 160890 | 166778


Характеристики диапазона извлечения и сообщения об ошибках

Выбранный диапазон

Имя файла F:\Лоси\S\Scatterbrain - Here Comes Trouble.wav

Пиковый уровень 98.4 %
Качество диапазона 100.0 %
CRC копии 287C4E7A
Копирование... OK

Ошибок не произошло


AccurateRip: сводка

Трек 1 точное извлечение (доверие 2) [76F7D522]
Трек 2 точное извлечение (доверие 2) [9D4F888D]
Трек 3 точное извлечение (доверие 2) [BA17FC5A]
Трек 4 точное извлечение (доверие 2) [BD31944F]
Трек 5 точное извлечение (доверие 2) [01F88128]
Трек 6 точное извлечение (доверие 2) [59816115]
Трек 7 точное извлечение (доверие 2) [28B3DD82]
Трек 8 точное извлечение (доверие 2) [3FA55416]
Трек 9 точное извлечение (доверие 2) [C7D632D2]
Трек 10 точное извлечение (доверие 2) [FF02DFD7]
Трек 11 точное извлечение (доверие 2) [4BF86BCD]

Все треки извлечены точно

Конец отчёта


Megaupload


Top
 Profile  
 
 
PostPosted: 22 Sep 2010 
Генеральный thrasher
User avatar
Joined: 03 Oct 2008
Posts: 3507
Lоcаtion: Ханты-Мансийский АО
Age: 43
Name: Сергей
Сканы в архиве...


Top
 Profile  
 
 
PostPosted: 22 Sep 2010 
Хиппей (support team)
User avatar
Joined: 30 Jul 2007
Posts: 108205
Lоcаtion: Киев (Kyiv, UA)
Age: 45
Name: Andrey
:crazy: :thanx:

_________________


Top
 Profile E-mail  
 
 
PostPosted: 22 Sep 2010 
А может смените мне статус?..
User avatar
Joined: 28 Oct 2009
Posts: 662
Lоcаtion: Sweden
Age: 31
Name: Emil
:nunu: :true:

_________________
http://strappadometalblog.blogspot.com | http://heavymetalrarities.com/forum


Top
 Profile E-mail  
 
 
PostPosted: 27 Sep 2010 
Хиппей (support team)
User avatar
Joined: 30 Jul 2007
Posts: 108205
Lоcаtion: Киев (Kyiv, UA)
Age: 45
Name: Andrey
http://rutracker.org/forum/viewtopic.php?t=3177390 :true:

_________________


Top
 Profile E-mail  
 
 
PostPosted: 27 Sep 2010 
Генеральный thrasher
User avatar
Joined: 03 Oct 2008
Posts: 3507
Lоcаtion: Ханты-Мансийский АО
Age: 43
Name: Сергей
Андрей,это моя раздача..


Top
 Profile  
 
 
PostPosted: 27 Sep 2010 
Хиппей (support team)
User avatar
Joined: 30 Jul 2007
Posts: 108205
Lоcаtion: Киев (Kyiv, UA)
Age: 45
Name: Andrey
Тю, блин, я чет думал что это ник Макса (Оверкиллера) :oops: С утра не разобрал :pardon:

_________________


Top
 Profile E-mail  
 
 
PostPosted: 27 Sep 2010 
Прокъмитолист
User avatar
Joined: 12 Aug 2007
Posts: 6504
Lоcаtion: Санктъ-Петербуркъ
Age: 51
Name: Олекъ
вроде и был уже у меня, но не помню что за рип. Серегин по-любому полнее. спасибо, дружище! :true:

_________________
прокъметол - это музыко, от которово есть прок (ы)


Top
 Profile  
 
 
PostPosted: 27 Sep 2010 
Motörheadache
User avatar
Joined: 04 Feb 2010
Posts: 1294
Lоcаtion: Впереди- горы,позади-степи
Age: 45
Name: Александр
опа-а-а....
мимо просто не пройти..... :true:

_________________
Eine Nation, Ein Land, Eine Schnaps!

Наш священный долг:защищать Родину,и соблюдать правила личной гигиены....!


Top
 Profile E-mail  
 
 
PostPosted: 27 Sep 2010 
Хиппей (support team)
User avatar
Joined: 30 Jul 2007
Posts: 108205
Lоcаtion: Киев (Kyiv, UA)
Age: 45
Name: Andrey
Да шо там, проходите. На самом деле альбом если уж не УГ, то исключительно на любителя :fingal: Или того, кто тащится чисто от лирики и слэнга :pardon:

_________________


Top
 Profile E-mail  
 
 
PostPosted: 27 Sep 2010 
Хиппей (support team)
User avatar
Joined: 30 Jul 2007
Posts: 108205
Lоcаtion: Киев (Kyiv, UA)
Age: 45
Name: Andrey
А, ну да. У нас же еще миник от Славега завалялся... :oops:

:arrow: viewtopic.php?f=192&t=3263

_________________


Top
 Profile E-mail  
 
 
PostPosted: 27 Sep 2010 
Motörheadache
User avatar
Joined: 04 Feb 2010
Posts: 1294
Lоcаtion: Впереди- горы,позади-степи
Age: 45
Name: Александр
Scatterbrain wrote:
На самом деле альбом если уж не УГ, то исключительно на любителя

та лан,Саныч.....нормальное музло...у мене гдато на МП3 болтаитсо...
Под настрой покатит вполне (ну не шыдевр...да и ладно... :pardon: )

_________________
Eine Nation, Ein Land, Eine Schnaps!

Наш священный долг:защищать Родину,и соблюдать правила личной гигиены....!


Top
 Profile E-mail  
 
Display posts from previous:  Sort by  
Post new topic Reply to topic  [ 12 posts ] 

All times are UTC + 3 hours


Who is online

Users browsing this forum: No registered users and 1 guest


You cannot post new topics in this forum
You cannot reply to topics in this forum
You cannot edit your posts in this forum
You cannot delete your posts in this forum
You cannot post attachments in this forum

Search for:
Яндекс.Метрика
Powered by phpBB © 2000, 2002, 2005, 2007 phpBB Group