\m/ 80's metal \m/

Информационно-аналитический форум "80 см пыли" (In Search We Trust) "У нас никто никуда не спешит"
Me For You - http://me-4u.com
It is currently 20 Nov 2018

All times are UTC + 3 hours

Spoiler
Chat - temporary registration for foreign users (please leave your application here)







Post new topic Reply to topic  [ 17 posts ] 
Author Message
 
PostPosted: 05 Sep 2010 
metallpaparazzy
User avatar
Joined: 20 Dec 2009
Posts: 674
Lоcаtion: Днепропетровск
Age: 43
Name: Геннадий
Solitaire - Extremely Flammable


Image

Full-length, Iron Glory Records
August 30th, 2004

1. Countdown 04:17
2. Extremely Flammable 03:49
3. Heroes Fall Down 03:11
4. Out Of My Role 02:09
5. Breaking Point 03:29
6. Metalsquad 03:02
7. I Won't Come In Peace 03:18
8. Speed Trap 02:46
9. Steel Against Steel 04:57
10. Boy Without A World 05:24

Total playing time 37:18
log
Отчёт EAC об извлечении, выполненном 3. сентября 2010, 19:34 для диска:
Solitaire / Extremely Flammable

Дисковод: Optiarc DVD RW AD-7170S Adapter: 1 ID: 1
Режим чтения: Достоверный (C2: нет, Точный поток: да, Отключение кэша: да)
Коррекция смещения при чтении: 48
Способность читать области Lead-in и Lead-out : Нет

Выходной формат: Внутренние WAV-операции
44.100 Гц; 16 бит; стерео

Другие параметры:
Заполнение пропущенных сэмплов тишиной : Да
Удаление блоков с тишиной в начале и конце : Нет
Установленный внешний ASPI-интерфейс


Характеристики диапазона извлечения и сообщения об ошибках
Выбранный диапазон
Имя файла D:\METAL\ЛОСИ\МОИ\Solitaire - Extremely Flammable\Solitaire - Extremely Flammable .wav

Пиковый уровень 96.5 %
Качество диапазона 99.9 %
CRC BF744325
Копирование... OK

Ошибок не произошло

Конец отчёта

cue
REM GENRE "Thrash Metal"
REM DATE 2004
REM DISCID 8308BC0A
REM COMMENT "ExactAudioCopy v0.95b4"
PERFORMER "Solitaire"
TITLE "Extremely Flammable "
FILE "Solitaire - Extremely Flammable .wav" WAVE
TRACK 01 AUDIO
TITLE "Countdown"
PERFORMER "Solitaire"
FLAGS DCP
INDEX 01 00:00:00
TRACK 02 AUDIO
TITLE "Extremely Flammable"
PERFORMER "Solitaire"
FLAGS DCP
INDEX 01 04:17:14
TRACK 03 AUDIO
TITLE "Heroes Fall Down"
PERFORMER "Solitaire"
FLAGS DCP
INDEX 01 08:06:17
TRACK 04 AUDIO
TITLE "Out Of My Role"
PERFORMER "Solitaire"
FLAGS DCP
INDEX 01 11:17:02
TRACK 05 AUDIO
TITLE "Breaking Point"
PERFORMER "Solitaire"
FLAGS DCP
INDEX 01 13:26:39
TRACK 06 AUDIO
TITLE "Metalsquad"
PERFORMER "Solitaire"
FLAGS DCP
INDEX 00 16:47:50
INDEX 01 16:49:00
TRACK 07 AUDIO
TITLE "I Won't Come In Peace"
PERFORMER "Solitaire"
FLAGS DCP
INDEX 01 20:51:56
TRACK 08 AUDIO
TITLE "Speed Trap"
PERFORMER "Solitaire"
FLAGS DCP
INDEX 01 24:09:61
TRACK 09 AUDIO
TITLE "Steel Against Steel"
PERFORMER "Solitaire"
FLAGS DCP
INDEX 01 26:55:72
TRACK 10 AUDIO
TITLE " Boy Without A World"
PERFORMER "Solitaire"
FLAGS DCP
INDEX 01 31:52:47


MultiUp l Narod

Все-таки я нашел его! :true: Не купил, так хоть лося забацать получилось. :meloman: Диск предоставил мой товарищ с балки, Валера. :thanx: Фирма. Коверочки присутствуют, правда частично с фотика, а то шара со сканером кончилась -- пришлось экономить... :pardon:


Top
 Profile E-mail  
 
 
PostPosted: 05 Sep 2010 
Хиппей (support team)
User avatar
Joined: 30 Jul 2007
Posts: 108205
Lоcаtion: Киев (Kyiv, UA)
Age: 45
Name: Andrey
:thanx:

_________________


Top
 Profile E-mail  
 
 
PostPosted: 05 Sep 2010 
Прокъмитолист
User avatar
Joined: 12 Aug 2007
Posts: 6504
Lоcаtion: Санктъ-Петербуркъ
Age: 51
Name: Олекъ
а можно каверочки отдельно? :oops: а то мне типа от этого лося только рога нужны :crazy:

_________________
прокъметол - это музыко, от которово есть прок (ы)


Top
 Profile  
 
 
PostPosted: 06 Sep 2010 
metallpaparazzy
User avatar
Joined: 20 Dec 2009
Posts: 674
Lоcаtion: Днепропетровск
Age: 43
Name: Геннадий
да пожалуйста :true: http://narod.ru/disk/24526323000/scans.rar.html (картинки)


Top
 Profile E-mail  
 
 
PostPosted: 06 Sep 2010 
Прокъмитолист
User avatar
Joined: 12 Aug 2007
Posts: 6504
Lоcаtion: Санктъ-Петербуркъ
Age: 51
Name: Олекъ
Гена, спасибо за отзывчивость! :true:

_________________
прокъметол - это музыко, от которово есть прок (ы)


Top
 Profile  
 
 
PostPosted: 06 Sep 2010 
А может смените мне статус?..
User avatar
Joined: 02 Feb 2009
Posts: 999
Lоcаtion: из Тулы
Age: 44
Name: Максим
http://losi.moole.ru/218129-zdes-mozhno ... rebok.html
здесь еще один альбомчик -- если кто пропустил

_________________
КМА


Top
 Profile  
 
 
PostPosted: 25 Apr 2011 
Thrasher
User avatar
Joined: 07 Oct 2007
Posts: 2756
Lоcаtion: Russia, Moscow
Age: 34
Name: Drunk & Evil
:thanx: :thanx:

_________________
ВОДКА, БАБЫ И БЛЮЗ / 40° till death... :bodun:
One time we saw some hookers, but when we got closer, we realised it was Mötley Crüe. ©


Top
 Profile  
 
 
PostPosted: 26 Apr 2011 
Хиппей (support team)
User avatar
Joined: 30 Jul 2007
Posts: 108205
Lоcаtion: Киев (Kyiv, UA)
Age: 45
Name: Andrey
overkiller wrote:
http://losi.moole.ru/218129-zdes-mozhno ... rebok.html
здесь еще один альбомчик -- если кто пропустил

:thanx:
mirror: MultiUp l Narod

Solitaire - 2006 - Invasion Metropolis [flac]

No scans :(

log
Exact Audio Copy V0.99 prebeta 3 from 28. July 2007

EAC extraction logfile from 23. April 2010, 16:02

Solitaire / Invasion Metropolis

Used drive : Optiarc DVD RW AD-7200S Adapter: 0 ID: 1

Read mode : Secure
Utilize accurate stream : Yes
Defeat audio cache : Yes
Make use of C2 pointers : No

Read offset correction : 48
Overread into Lead-In and Lead-Out : No
Fill up missing offset samples with silence : Yes
Delete leading and trailing silent blocks : No
Null samples used in CRC calculations : Yes
Used interface : Native Win32 interface for Win NT & 2000

Used output format : Internal WAV Routines
Sample format : 44.100 Hz; 16 Bit; Stereo


TOC of the extracted CD

Track | Start | Length | Start sector | End sector
---------------------------------------------------------
1 | 0:00.00 | 5:01.27 | 0 | 22601
2 | 5:01.27 | 3:53.49 | 22602 | 40125
3 | 8:55.01 | 3:20.59 | 40126 | 55184
4 | 12:15.60 | 4:20.72 | 55185 | 74756
5 | 16:36.57 | 3:41.30 | 74757 | 91361
6 | 20:18.12 | 3:46.17 | 91362 | 108328
7 | 24:04.29 | 2:31.63 | 108329 | 119716
8 | 26:36.17 | 3:17.13 | 119717 | 134504
9 | 29:53.30 | 4:28.31 | 134505 | 154635
10 | 34:21.61 | 4:02.27 | 154636 | 172812


Range status and errors

Selected range

Filename D:\На телефон\Solitaire - Invasion Metropolis.wav

Peak level 96.5 %
Range quality 99.9 %
Copy CRC C2F8321D
Copy OK

No errors occurred

End of status report


cue
REM GENRE "Thrash Metal"
REM DATE 2006
REM DISCID 8E09000A
REM COMMENT "ExactAudioCopy v0.99pb3"
PERFORMER "Solitaire"
TITLE "Invasion Metropolis"
FILE "Solitaire - Invasion Metropolis.flac" WAVE
TRACK 01 AUDIO
TITLE "Soul Restless Soul"
PERFORMER "Solitaire"
INDEX 01 00:00:00
TRACK 02 AUDIO
TITLE "Open Season"
PERFORMER "Solitaire"
INDEX 01 05:01:27
TRACK 03 AUDIO
TITLE "Wipe-Out"
PERFORMER "Solitaire"
INDEX 01 08:55:01
TRACK 04 AUDIO
TITLE "Blue Lights Flashing"
PERFORMER "Solitaire"
INDEX 01 12:15:60
TRACK 05 AUDIO
TITLE "The Decade Of Aggression"
PERFORMER "Solitaire"
INDEX 01 16:36:57
TRACK 06 AUDIO
TITLE "Invasoin Metropolis"
PERFORMER "Solitaire"
INDEX 00 20:16:65
INDEX 01 20:18:12
TRACK 07 AUDIO
TITLE "Die Tonight"
PERFORMER "Solitaire"
INDEX 01 24:04:29
TRACK 08 AUDIO
TITLE "Engage The Power"
PERFORMER "Solitaire"
INDEX 01 26:36:17
TRACK 09 AUDIO
TITLE "Potential Hazard To Life"
PERFORMER "Solitaire"
INDEX 01 29:53:30
TRACK 10 AUDIO
TITLE "Closing Circle"
PERFORMER "Solitaire"
INDEX 01 34:21:61

_________________


Top
 Profile E-mail  
 
 
PostPosted: 19 May 2011 
Хиппей (support team)
User avatar
Joined: 30 Jul 2007
Posts: 108205
Lоcаtion: Киев (Kyiv, UA)
Age: 45
Name: Andrey
metallroll wrote:
Solitaire - 2004 - Extremely Flammable


Однако... :shok:
Альбом порвал своей олдскульностью спидовой и трэшевой :true: :true: :true:
Казалось бы, примитивное (хоть и техничное) долбилово и пилилово, а как же приятно слушается :cry:

10/10

_________________


Top
 Profile E-mail  
 
 
PostPosted: 19 May 2011 
А может смените мне статус?..
User avatar
Joined: 02 Feb 2009
Posts: 999
Lоcаtion: из Тулы
Age: 44
Name: Максим
сканы могу наверное сделать
если диск ща найду -- а то мог к матери утащить

_________________
КМА


Top
 Profile  
 
 
PostPosted: 19 May 2011 
А может смените мне статус?..
User avatar
Joined: 02 Feb 2009
Posts: 999
Lоcаtion: из Тулы
Age: 44
Name: Максим
диск на месте
сегодня сделаю

_________________
КМА


Top
 Profile  
 
 
PostPosted: 19 May 2011 
А может смените мне статус?..
User avatar
Joined: 02 Feb 2009
Posts: 999
Lоcаtion: из Тулы
Age: 44
Name: Максим
http://narod.ru/disk/13429791001/Solitaire-Invasion(scans).rar.html
и так -- информация для всех кто скачивал мои релизы без сканов и нуждается в последних -- пишите , забацаю , правда все не обещаю , т.к. многих уже нет у меня , но кое что еще доступно

_________________
КМА


Top
 Profile  
 
 
PostPosted: 19 May 2011 
Прокъмитолист
User avatar
Joined: 12 Aug 2007
Posts: 6504
Lоcаtion: Санктъ-Петербуркъ
Age: 51
Name: Олекъ
:thanx:

_________________
прокъметол - это музыко, от которово есть прок (ы)


Top
 Profile  
 
 
PostPosted: 20 May 2011 
Хиппей (support team)
User avatar
Joined: 30 Jul 2007
Posts: 108205
Lоcаtion: Киев (Kyiv, UA)
Age: 45
Name: Andrey
Quote:
Solitaire - 2006 - Invasion Metropolis

А этот альбом еще больше порадовал, спасибо :true:
Вроде и скоростей не сбавляли, и угара еще больше, но звучат ребята как-то иначе. Более технично и взросло, что-ли...

10/10

_________________


Top
 Profile E-mail  
 
 
PostPosted: 20 May 2011 
Хиппей (support team)
User avatar
Joined: 30 Jul 2007
Posts: 108205
Lоcаtion: Киев (Kyiv, UA)
Age: 45
Name: Andrey
Макс, и за сканы спасибо :thanx:

_________________


Top
 Profile E-mail  
 
 
PostPosted: 20 May 2011 
А может смените мне статус?..
User avatar
Joined: 24 Dec 2008
Posts: 621
Age: 44
Name: Дмитрий
overkiller wrote:
http://narod.ru/disk/13429791001/Solitaire-Invasion(scans).rar.html
и так -- информация для всех кто скачивал мои релизы без сканов и нуждается в последних -- пишите , забацаю , правда все не обещаю , т.к. многих уже нет у меня , но кое что еще доступно



Спасибо за обложки!


Top
 Profile  
 
 
PostPosted: 20 Dec 2011 
ТрэшЭрос
User avatar
Joined: 18 Jul 2011
Posts: 2300
Lоcаtion: Гулькевичи
Age: 43
Name: Александр
metallroll, :thanx: :true:

_________________
Thrash no trash!!!


Top
 Profile E-mail  
 
Display posts from previous:  Sort by  
Post new topic Reply to topic  [ 17 posts ] 

All times are UTC + 3 hours


Who is online

Users browsing this forum: No registered users and 4 guests


You cannot post new topics in this forum
You cannot reply to topics in this forum
You cannot edit your posts in this forum
You cannot delete your posts in this forum
You cannot post attachments in this forum

Search for:
Яндекс.Метрика
Powered by phpBB © 2000, 2002, 2005, 2007 phpBB Group