\m/ 80's metal \m/

Информационно-аналитический форум "80 см пыли" (In Search We Trust) "У нас никто никуда не спешит"
Железнодорожная биржа - RailAgent
It is currently 23 Jul 2018

All times are UTC + 3 hours

Spoiler
Chat - temporary registration for foreign users (please leave your application here)







Post new topic Reply to topic  [ 14 posts ] 
Author Message
 
PostPosted: 04 Sep 2010 
ыыыы
User avatar
Joined: 17 May 2009
Posts: 952
Lоcаtion: Пушкино, МО
Age: 39
Name: Дмитрий
Image


Жанр: Hard Rock
Происхождение исполнителя: Англия
Год издания: 1979
Год издания данного носителя: 1994
Страна-производитель носителя: Япония
Аудио кодек: FLAC
Тип рипа: image+.cue
Битрейт аудио: lossless
Продолжительность: 28:52
Рип: Собственный
Лейбл: EMI
Каталоговый номер: TOCP-8371
Матрица: TOCP-8371 1 A1 (SONY)

Треклист:
1. Rainbow Theme 01:00
2. Frozen Rainbow 04:37
3. Big Teaser 03:56
4. Judgement Day 05:31
5. Stallions of the Highway 02:52
6. Backs to the Wall 03:10
7. Still Fit to Boogie 02:54
8. Militia Guard 04:52

"Куй"
REM GENRE "Hard Rock"
REM DATE 1979
REM DISCID 6306C408
REM COMMENT "ExactAudioCopy v0.99pb5"
PERFORMER "Saxon"
TITLE "Saxon [TOCP-8371]"
FILE "Saxon - Saxon [TOCP-8371].flac" WAVE
TRACK 01 AUDIO
TITLE "Rainbow Theme"
PERFORMER "Saxon"
INDEX 01 00:00:00
TRACK 02 AUDIO
TITLE "Frozen Rainbow"
PERFORMER "Saxon"
INDEX 01 01:00:00
TRACK 03 AUDIO
TITLE "Big Teaser"
PERFORMER "Saxon"
INDEX 00 05:35:37
INDEX 01 05:37:17
TRACK 04 AUDIO
TITLE "Judgement Day"
PERFORMER "Saxon"
INDEX 00 09:31:42
INDEX 01 09:33:15
TRACK 05 AUDIO
TITLE "Stallions Of The Highway"
PERFORMER "Saxon"
INDEX 00 15:02:25
INDEX 01 15:04:00
TRACK 06 AUDIO
TITLE "Backs To The Wall"
PERFORMER "Saxon"
INDEX 00 17:55:37
INDEX 01 17:56:07
TRACK 07 AUDIO
TITLE "Still Fit To Boogie"
PERFORMER "Saxon"
INDEX 00 21:04:72
INDEX 01 21:05:65
TRACK 08 AUDIO
TITLE "Militia Guard"
PERFORMER "Saxon"
INDEX 00 23:58:32
INDEX 01 23:59:55


"Лог"
Exact Audio Copy V0.99 prebeta 5 from 4. May 2009

Отчёт EAC об извлечении, выполненном 4. сентября 2010, 18:10

Saxon / Saxon [TOCP-8371]

Дисковод: MATSHITADVD-RAM UJ-850S Adapter: 0 ID: 0

Режим чтения : Достоверность
Использование точного потока : Да
Отключение кэша аудио : Да
Использование указателей C2 : Нет

Коррекция смещения при чтении : 102
Способность читать области Lead-in и Lead-out : Нет
Заполнение пропущенных сэмплов тишиной : Да
Удаление блоков с тишиной в начале и конце : Нет
При вычислениях CRC использовались нулевые сэмплы : Да
Интерфейс : Установленный внешний ASPI-интерфейс

Выходной формат : Пользовательский кодировщик
Выбранный битрейт : 128 kBit/s
Качество : Высокий
Добавление ID3-тэга : Нет
Утилита сжатия : C:\Program Files\Exact Audio Copy\Flac\flac.exe
Дополнительные параметры : -6 -V -T "artist=%a" -T "title=%t" -T "album=%g" -T "date=%y" -T "tracknumber=%n" -T "genre=%m" -T "comment=EAC 0.99beta5 / FLAC 1.1.0 q6" %s


TOC извлечённого CD

Трек | Старт | Длительность | Начальный сектор | Конечный сектор
---------------------------------------------------------------------
1 | 0:00.00 | 1:00.00 | 0 | 4499
2 | 1:00.00 | 4:37.17 | 4500 | 25291
3 | 5:37.17 | 3:55.73 | 25292 | 42989
4 | 9:33.15 | 5:30.60 | 42990 | 67799
5 | 15:04.00 | 2:52.07 | 67800 | 80706
6 | 17:56.07 | 3:09.58 | 80707 | 94939
7 | 21:05.65 | 2:53.65 | 94940 | 107979
8 | 23:59.55 | 4:52.32 | 107980 | 129911


Характеристики диапазона извлечения и сообщения об ошибках

Выбранный диапазон

Имя файла Y:\Музыка\Saxon\1979 Saxon\Saxon - Saxon [TOCP-8371].wav

Пиковый уровень 100.0 %
Качество диапазона 100.0 %
CRC копии E2AB8DBD
Копирование... OK

Ошибок не произошло


AccurateRip: сводка

Трек 1 нет в базе данных
Трек 2 нет в базе данных
Трек 3 нет в базе данных
Трек 4 нет в базе данных
Трек 5 нет в базе данных
Трек 6 нет в базе данных
Трек 7 нет в базе данных
Трек 8 нет в базе данных

Ни одного трека нет в базе AccurateRip

Конец отчёта


Состав:
Biff Byford: Vocals
Paul Quinn: Guitar
Graham Oliver: Guitar
Steve Dawson: Bass
Pete Gill: Drums

TOCP-8371

_________________
Витасу до Даймонда как Алсу до Руссоса | При переразмещении - спрашивать разрешение!!


Top
 Profile  
 
 
PostPosted: 04 Sep 2010 
Хиппей (support team)
User avatar
Joined: 30 Jul 2007
Posts: 105233
Lоcаtion: Киев (Kyiv, UA)
Age: 45
Name: Andrey
Дмитрий, тхеньксэлот! :thanx:

_________________


Top
 Profile E-mail  
 
 
PostPosted: 04 Sep 2010 
Хиппей (support team)
User avatar
Joined: 30 Jul 2007
Posts: 105233
Lоcаtion: Киев (Kyiv, UA)
Age: 45
Name: Andrey
Хм, а чо мало весит лосик? :oops:

_________________


Top
 Profile E-mail  
 
 
PostPosted: 04 Sep 2010 
Персональный статус
Joined: 14 May 2010
Posts: 236
Age: 36
Name: Денис
так 28 минут всего напето.


Top
 Profile  
 
 
PostPosted: 04 Sep 2010 
ыыыы
User avatar
Joined: 17 May 2009
Posts: 952
Lоcаtion: Пушкино, МО
Age: 39
Name: Дмитрий
ага. согласно трэк-листу

_________________
Витасу до Даймонда как Алсу до Руссоса | При переразмещении - спрашивать разрешение!!


Top
 Profile  
 
 
PostPosted: 04 Sep 2010 
Хиппей (support team)
User avatar
Joined: 30 Jul 2007
Posts: 105233
Lоcаtion: Киев (Kyiv, UA)
Age: 45
Name: Andrey
Странно, но спасибо всем :umnik:

_________________


Top
 Profile E-mail  
 
 
PostPosted: 04 Sep 2010 
ыыыы
User avatar
Joined: 17 May 2009
Posts: 952
Lоcаtion: Пушкино, МО
Age: 39
Name: Дмитрий
и тебе спасибо!!! :true:

_________________
Витасу до Даймонда как Алсу до Руссоса | При переразмещении - спрашивать разрешение!!


Top
 Profile  
 
 
PostPosted: 04 Sep 2010 
труъ антисионист
User avatar
Joined: 01 Aug 2007
Posts: 4541
Lоcаtion: Откуда и большинство из нас
Age: 37
Name: Дядя Вова
Frozen Rainbow :true:

_________________
Image
Image


Top
 Profile  
 
 
PostPosted: 04 Sep 2010 
ыыыы
User avatar
Joined: 17 May 2009
Posts: 952
Lоcаtion: Пушкино, МО
Age: 39
Name: Дмитрий
:ura:

_________________
Витасу до Даймонда как Алсу до Руссоса | При переразмещении - спрашивать разрешение!!


Top
 Profile  
 
 
PostPosted: 04 Sep 2010 
Пионэръ
User avatar
Joined: 02 Jul 2010
Posts: 45
Lоcаtion: Сочи
Age: 46
Name: Борис
СПАСИБО !!!!! :true: :true: :true: :true:


Top
 Profile E-mail  
 
 
PostPosted: 05 Sep 2010 
Пионэръ
Joined: 08 Mar 2010
Posts: 36
Lоcаtion: Россия
Age: 38
Name: Иван
:meloman: :thanx:


Top
 Profile E-mail  
 
 
PostPosted: 05 Sep 2010 
Хиппей (support team)
User avatar
Joined: 30 Jul 2007
Posts: 105233
Lоcаtion: Киев (Kyiv, UA)
Age: 45
Name: Andrey
iezuit wrote:
и тебе спасибо!!! :true:

А мне за што? :shok:

_________________


Top
 Profile E-mail  
 
 
PostPosted: 05 Sep 2010 
ыыыы
User avatar
Joined: 17 May 2009
Posts: 952
Lоcаtion: Пушкино, МО
Age: 39
Name: Дмитрий
Scatterbrain
за спасибо!! жалко что ли?? :crazy:

_________________
Витасу до Даймонда как Алсу до Руссоса | При переразмещении - спрашивать разрешение!!


Top
 Profile  
 
 
PostPosted: 30 Jan 2011 
хард н хэвщик (support team)
User avatar
Joined: 02 Jun 2008
Posts: 16880
Lоcаtion: Н.Новгород
Age: 31
Name: Артем
iezuit wrote:
1. Rainbow Theme 01:00
2. Frozen Rainbow 04:37

все, что нравится с этого альбома , - всего две штуки, но зато какие песни :true:


Top
 Profile  
 
Display posts from previous:  Sort by  
Post new topic Reply to topic  [ 14 posts ] 

All times are UTC + 3 hours


Who is online

Users browsing this forum: No registered users and 4 guests


You cannot post new topics in this forum
You cannot reply to topics in this forum
You cannot edit your posts in this forum
You cannot delete your posts in this forum
You cannot post attachments in this forum

Search for:
Яндекс.Метрика
Powered by phpBB © 2000, 2002, 2005, 2007 phpBB Group