\m/ 80's metal \m/

Информационно-аналитический форум "80 см пыли" (In Search We Trust) "У нас никто никуда не спешит"
Me For You - http://me-4u.com
It is currently 22 Nov 2018

All times are UTC + 3 hours

Spoiler
Chat - temporary registration for foreign users (please leave your application here)







Post new topic Reply to topic  [ 12 posts ] 
Author Message
 
PostPosted: 25 Aug 2010 
ыыыы
User avatar
Joined: 17 May 2009
Posts: 952
Lоcаtion: Пушкино, МО
Age: 40
Name: Дмитрий
Image


Жанр: Hard Rock
Происхождение исполнителя: Германия
Год издания: 1972
Год издания данного носителя: 1986
Страна-производитель носителя: Япония
Аудио кодек: FLAC
Тип рипа: image+.cue
Битрейт аудио: lossless
Продолжительность: 40:42
Рип: Собственный
Лейбл: BRAIN/POLYSTAR
Каталоговый номер: P33X-20003
Матрица: P33X-20003-U1E 11 (JVC)

Треклист:
1. Action 03:57
2. It All Depends 03:27
3. Lonesome Crow 13:33
4. I'm Going Mad 04:56
5. Leave Me 05:06
6. In Search of the Peace of Mind 05:01
7. Inheritance 04:41

"Куй"
REM GENRE "Hard Rock"
REM DATE 1972
REM DISCID 55098A07
REM COMMENT "ExactAudioCopy v0.99pb5"
PERFORMER "Scorpions"
TITLE "The Lonesome Crow [P33X-20003]"
FILE "Scorpions - The Lonesome Crow [P33X-20003].flac" WAVE
TRACK 01 AUDIO
TITLE "Action"
PERFORMER "Scorpions"
INDEX 00 00:00:00
INDEX 01 00:00:37
TRACK 02 AUDIO
TITLE "It All Depends"
PERFORMER "Scorpions"
INDEX 00 03:52:14
INDEX 01 03:57:20
TRACK 03 AUDIO
TITLE "Lonesome Crow"
PERFORMER "Scorpions"
INDEX 00 07:19:51
INDEX 01 07:24:52
TRACK 04 AUDIO
TITLE "I'm Goin' Mad"
PERFORMER "Scorpions"
INDEX 00 20:51:66
INDEX 01 20:58:07
TRACK 05 AUDIO
TITLE "Leave Me"
PERFORMER "Scorpions"
INDEX 00 25:48:64
INDEX 01 25:54:22
TRACK 06 AUDIO
TITLE "In Search Of The Peace Of Mind"
PERFORMER "Scorpions"
INDEX 00 30:55:39
INDEX 01 31:00:52
TRACK 07 AUDIO
TITLE "Inheritance"
PERFORMER "Scorpions"
INDEX 00 35:56:04
INDEX 01 36:01:72


"Лог"
Exact Audio Copy V0.99 prebeta 5 from 4. May 2009

Отчёт EAC об извлечении, выполненном 25. августа 2010, 22:39

Scorpions / The Lonesome Crow [P33X-20003]

Дисковод: MATSHITADVD-RAM UJ-850S Adapter: 0 ID: 0

Режим чтения : Достоверность
Использование точного потока : Да
Отключение кэша аудио : Да
Использование указателей C2 : Нет

Коррекция смещения при чтении : 102
Способность читать области Lead-in и Lead-out : Нет
Заполнение пропущенных сэмплов тишиной : Да
Удаление блоков с тишиной в начале и конце : Нет
При вычислениях CRC использовались нулевые сэмплы : Да
Интерфейс : Установленный внешний ASPI-интерфейс

Выходной формат : Пользовательский кодировщик
Выбранный битрейт : 128 kBit/s
Качество : Высокий
Добавление ID3-тэга : Нет
Утилита сжатия : C:\Program Files\Exact Audio Copy\Flac\flac.exe
Дополнительные параметры : -6 -V -T "artist=%a" -T "title=%t" -T "album=%g" -T "date=%y" -T "tracknumber=%n" -T "genre=%m" -T "comment=EAC 0.99beta5 / FLAC 1.1.0 q6" %s


TOC извлечённого CD

Трек | Старт | Длительность | Начальный сектор | Конечный сектор
---------------------------------------------------------------------
1 | 0:00.37 | 3:56.58 | 37 | 17794
2 | 3:57.20 | 3:27.32 | 17795 | 33351
3 | 7:24.52 | 13:33.30 | 33352 | 94356
4 | 20:58.07 | 4:56.15 | 94357 | 116571
5 | 25:54.22 | 5:06.30 | 116572 | 139551
6 | 31:00.52 | 5:01.20 | 139552 | 162146
7 | 36:01.72 | 4:40.60 | 162147 | 183206


Характеристики диапазона извлечения и сообщения об ошибках

Выбранный диапазон

Имя файла Y:\Музыка\Scorpions\1972 Lonesome Crow\Scorpions - The Lonesome Crow [P33X-20003].wav

Пиковый уровень 99.6 %
Качество диапазона 99.9 %
CRC копии 3C1687A1
Копирование... OK

Ошибок не произошло


AccurateRip: сводка

Трек 1 точность не определена (достоверность 2) [0953F4BE], AccurateRip вернул [2A7762BA]
Трек 2 точность не определена (достоверность 2) [80374319], AccurateRip вернул [5912FEFA]
Трек 3 точность не определена (достоверность 2) [872D296E], AccurateRip вернул [A6416996]
Трек 4 точность не определена (достоверность 2) [1B8B65A4], AccurateRip вернул [832696E6]
Трек 5 точность не определена (достоверность 2) [29E54D65], AccurateRip вернул [A87086A9]
Трек 6 точность не определена (достоверность 2) [B8F25384], AccurateRip вернул [E709898F]
Трек 7 точность не определена (достоверность 2) [DF52D356], AccurateRip вернул [BD28CC7D]

Ни один трек не прошёл проверки на точность
В вашей базе может быть иной вариант штамповки диска

Конец отчёта


Состав:
Klaus Meine: Vocals
Michael Schenker: Guitar
Rudolf Schenker: Guitar
Lothar Heinburg: Bass
Wolfgang Dziony: Drums

P33X-20003

_________________
Витасу до Даймонда как Алсу до Руссоса | При переразмещении - спрашивать разрешение!!


Top
 Profile  
 
 
PostPosted: 25 Aug 2010 
ыыыы
User avatar
Joined: 17 May 2009
Posts: 952
Lоcаtion: Пушкино, МО
Age: 40
Name: Дмитрий
В японском прокате альбом назывался The Original Scorpions :pardon:

_________________
Витасу до Даймонда как Алсу до Руссоса | При переразмещении - спрашивать разрешение!!


Top
 Profile  
 
 
PostPosted: 25 Aug 2010 
Персональный статус
Joined: 14 May 2010
Posts: 236
Age: 37
Name: Денис
рипнулся?


Top
 Profile  
 
 
PostPosted: 25 Aug 2010 
ыыыы
User avatar
Joined: 17 May 2009
Posts: 952
Lоcаtion: Пушкино, МО
Age: 40
Name: Дмитрий
ага, на скорости 0,9-1

_________________
Витасу до Даймонда как Алсу до Руссоса | При переразмещении - спрашивать разрешение!!


Top
 Profile  
 
 
PostPosted: 26 Aug 2010 
Труъ
User avatar
Joined: 14 Jul 2010
Posts: 104
Lоcаtion: Украина, Донецк
Age: 33
Name: Санёк
Вот это да, никогда еще мне не встречался этот альбом в таком виде. Треклист изменен, обложка другая, да еще и название другое. Всем раритетам раритет! Спасибо Дмитрий!

_________________
Rock 'N' Roll is the only thing that keeps me from breaking apart (c)


Top
 Profile E-mail  
 
 
PostPosted: 26 Aug 2010 
ыыыы
User avatar
Joined: 17 May 2009
Posts: 952
Lоcаtion: Пушкино, МО
Age: 40
Name: Дмитрий
в принципе весь ранний Полистар- раритеты. Особенно- Кисс, Акцепт и этот дисочек

_________________
Витасу до Даймонда как Алсу до Руссоса | При переразмещении - спрашивать разрешение!!


Top
 Profile  
 
 
PostPosted: 26 Aug 2010 
Труъ
User avatar
Joined: 14 Jul 2010
Posts: 104
Lоcаtion: Украина, Донецк
Age: 33
Name: Санёк
Я так понял, что и Virgin Killer первый и второй прессы тоже очень раритетные. Тяжело купить.

_________________
Rock 'N' Roll is the only thing that keeps me from breaking apart (c)


Top
 Profile E-mail  
 
 
PostPosted: 26 Aug 2010 
ыыыы
User avatar
Joined: 17 May 2009
Posts: 952
Lоcаtion: Пушкино, МО
Age: 40
Name: Дмитрий
первоизы скорпов до 88 вообще купить непросто. мало того, что дорого (84-й без оби стоит 250 уе- и тот только один на горизонте), а из второизов 89- да, Virgin Killer я вижу реже,чем остальные. Но 84-й первоиз будет- правда печатался для Европы и не на JVC а на CTA- по той же схеме, что и слимы Роадраннера. Думаю, звук будет потрясный

_________________
Витасу до Даймонда как Алсу до Руссоса | При переразмещении - спрашивать разрешение!!


Last edited by iezuit on 28 Aug 2010, edited 1 time in total.

Top
 Profile  
 
 
PostPosted: 26 Aug 2010 
А может смените мне статус?..
User avatar
Joined: 24 Dec 2008
Posts: 621
Age: 44
Name: Дмитрий
Спасибо! Пожалуй, прихвачу для коллекции. :losik:


Top
 Profile  
 
 
PostPosted: 26 Aug 2010 
Труъ
User avatar
Joined: 14 Jul 2010
Posts: 104
Lоcаtion: Украина, Донецк
Age: 33
Name: Санёк
84 год это не просто альбом, для меня это ТО, что на долгие годы определило музыкальные вкусы. Ждем сего чуда, Дима :pray:

_________________
Rock 'N' Roll is the only thing that keeps me from breaking apart (c)


Top
 Profile E-mail  
 
 
PostPosted: 28 Aug 2010 
Хиппей (support team)
User avatar
Joined: 30 Jul 2007
Posts: 108264
Lоcаtion: Киев (Kyiv, UA)
Age: 45
Name: Andrey
:thanx:

_________________


Top
 Profile E-mail  
 
 
PostPosted: 29 Aug 2010 
адын фелософъ прокметолу
User avatar
Joined: 22 Oct 2009
Posts: 2711
Lоcаtion: Сочи
Age: 41
Name: Сергей
А мне этот альбом нравится. это же легенда прог-рока.

_________________
А теперь ... клоунов и стриптизёрш!


Top
 Profile E-mail  
 
Display posts from previous:  Sort by  
Post new topic Reply to topic  [ 12 posts ] 

All times are UTC + 3 hours


Who is online

Users browsing this forum: No registered users and 3 guests


You cannot post new topics in this forum
You cannot reply to topics in this forum
You cannot edit your posts in this forum
You cannot delete your posts in this forum
You cannot post attachments in this forum

Search for:
Яндекс.Метрика
Powered by phpBB © 2000, 2002, 2005, 2007 phpBB Group