\m/ 80's metal \m/

Информационно-аналитический форум "80 см пыли" (In Search We Trust) "У нас никто никуда не спешит"
Железнодорожная биржа - RailAgent
It is currently 17 Jul 2018

All times are UTC + 3 hours

Spoiler
Chat - temporary registration for foreign users (please leave your application here)







Post new topic Reply to topic  [ 10 posts ] 
Author Message
 
PostPosted: 24 Aug 2010 
ыыыы
User avatar
Joined: 17 May 2009
Posts: 952
Lоcаtion: Пушкино, МО
Age: 39
Name: Дмитрий
Image


Жанр: Thrash Metal
Происхождение исполнителя: Бразилия
Год издания: 1992
Год издания данного носителя: 1992
Страна-производитель носителя: Япония
Аудио кодек: FLAC
Тип рипа: image+.cue
Битрейт аудио: lossless
Продолжительность: 11:08
Рип: Собственный
Лейбл: ROADRUNNER/F.E.M.S
Каталоговый номер: APCY-8081
Матрица: APCY-8081 1A1 TO (TOSHIBA)

Треклист:
1. Arise 03:22
2. Inner Self (live) 04:48
3. Troops of Doom (live) 02:59

"Куй"
REM GENRE "Thrash Metal"
REM DATE 1992
REM DISCID 15029B03
REM COMMENT "ExactAudioCopy v0.99pb5"
PERFORMER "Sepultura"
TITLE "Arise (CDS) [APCY-8081]"
FILE "Sepultura - Arise (CDS) [APCY-8081].flac" WAVE
TRACK 01 AUDIO
TITLE "Arise"
PERFORMER "Sepultura"
INDEX 01 00:00:00
TRACK 02 AUDIO
TITLE "Inner Self (Live)"
PERFORMER "Sepultura"
INDEX 00 03:19:07
INDEX 01 03:21:45
TRACK 03 AUDIO
TITLE "Troops of Doom (Live)"
PERFORMER "Sepultura"
INDEX 00 08:06:47
INDEX 01 08:09:10


"Лог"
Exact Audio Copy V0.99 prebeta 5 from 4. May 2009

Отчёт EAC об извлечении, выполненном 24. августа 2010, 12:01

Sepultura / Arise (CDS) [APCY-8081]

Дисковод: Optiarc DVD RW AD-7200A Adapter: 1 ID: 0

Режим чтения : Достоверность
Использование точного потока : Да
Отключение кэша аудио : Да
Использование указателей C2 : Нет

Коррекция смещения при чтении : 48
Способность читать области Lead-in и Lead-out : Нет
Заполнение пропущенных сэмплов тишиной : Да
Удаление блоков с тишиной в начале и конце : Нет
При вычислениях CRC использовались нулевые сэмплы : Да
Интерфейс : Встроенный Win32-интерфейс для Win NT/2000

Выходной формат : Пользовательский кодировщик
Выбранный битрейт : 128 kBit/s
Качество : Высокий
Добавление ID3-тэга : Нет
Утилита сжатия : C:\Program Files\Exact Audio Copy\Flac\flac.exe
Дополнительные параметры : -8 -V -T "artist=%a" -T "title=%t" -T "album=%g" -T "date=%y" -T "tracknumber=%n" -T "genre=%m" -T "comment=EAC


TOC извлечённого CD

Трек | Старт | Длительность | Начальный сектор | Конечный сектор
---------------------------------------------------------------------
1 | 0:00.00 | 3:21.45 | 0 | 15119
2 | 3:21.45 | 4:47.40 | 15120 | 36684
3 | 8:09.10 | 2:58.60 | 36685 | 50094


Характеристики диапазона извлечения и сообщения об ошибках

Выбранный диапазон

Имя файла Y:\Музыка\Sepultura\1992 Arise (CDS)\Sepultura - Arise (CDS) [APCY-8081].wav

Пиковый уровень 100.0 %
Качество диапазона 100.0 %
CRC копии 82C7E53C
Копирование... OK

Ошибок не произошло


AccurateRip: сводка

Трек 1 точное извлечение (доверие 2) [058EDD92]
Трек 2 точное извлечение (доверие 2) [A7C799FE]
Трек 3 точное извлечение (доверие 2) [BAFEC1F5]

Все треки извлечены точно

Конец отчёта


Состав:
Max Cavalera: Vocals/Guitar, Lyrics
Andreas Kisser: Lead Guitar, Lyrics
Paulo Jr.: Bass
Igor Cavalera: Drums

APCY-8081

_________________
Витасу до Даймонда как Алсу до Руссоса | При переразмещении - спрашивать разрешение!!


Last edited by iezuit on 24 Aug 2010, edited 2 times in total.

Top
 Profile  
 
 
PostPosted: 24 Aug 2010 
дядя Миша
User avatar
Joined: 17 Oct 2008
Posts: 3035
Lоcаtion: USSR
Age: 55
Name: Khy
А мне такой винил с моря привозили , продал в 98 году , кушать тогда хотелось........и ВЫТЬ!


Top
 Profile  
 
 
PostPosted: 24 Aug 2010 
ыыыы
User avatar
Joined: 17 May 2009
Posts: 952
Lоcаtion: Пушкино, МО
Age: 39
Name: Дмитрий
Понимаю...у меня щас люминия на хорошую машину..как продавать буду, если придётся- не знаю..

_________________
Витасу до Даймонда как Алсу до Руссоса | При переразмещении - спрашивать разрешение!!


Top
 Profile  
 
 
PostPosted: 24 Aug 2010 
Motörheadache
User avatar
Joined: 04 Feb 2010
Posts: 1294
Lоcаtion: Впереди- горы,позади-степи
Age: 45
Name: Александр
э-э-э-ээ....
Дима с раритетами......
Респект,шо уж тут говорить ! :true:

_________________
Eine Nation, Ein Land, Eine Schnaps!

Наш священный долг:защищать Родину,и соблюдать правила личной гигиены....!


Top
 Profile E-mail  
 
 
PostPosted: 24 Aug 2010 
ыыыы
User avatar
Joined: 17 May 2009
Posts: 952
Lоcаtion: Пушкино, МО
Age: 39
Name: Дмитрий
Минут через 7 еще один будет- смотрите за буковкой "С"

_________________
Витасу до Даймонда как Алсу до Руссоса | При переразмещении - спрашивать разрешение!!


Top
 Profile  
 
 
PostPosted: 24 Aug 2010 
Хиппей (support team)
User avatar
Joined: 30 Jul 2007
Posts: 105036
Lоcаtion: Киев (Kyiv, UA)
Age: 45
Name: Andrey
Эх, едрить, Москва, Лужа, 31 человек с Украины (Киев + Львов) и Молдавии на льду танцует под бразильский гимн, а до этого местная публика угорала под Черный Обелиск, ЭСТ, и еще какую-то хрень, уж простите. Назабываемая поездка. Пока ехали, в поезде не только выучил все песни с нового альбома и выжрали вотки немеряно, но и по прибытие кое-кто перепутал (не буду уточнять, кто имнно, патамушта я :crazy: ) киевский вокзал в Москве с киевским в Киеве... И затем пытался найти метро и выход из подземного перехода, затем уснул в кустах, но вечером все ж на концерт успел и минут 5 после поговорить на суржике английском с Киссером :pray:

Спасибо за рип и воспоминания! :thanx:

_________________


Top
 Profile E-mail  
 
 
PostPosted: 27 Aug 2010 
Позитивный Южанин
User avatar
Joined: 07 May 2010
Posts: 1620
Lоcаtion: КРЫМ
Age: 43
Name: Алексей
:crazy: В Давай-Давай лабазе(тогда одном из первых рок-лабазов)продавали афиши этого концерта...Будучи В Москве на экскурсии и приобрели в закрома вместе с нашивками и газетой ЗАРАЗЗА :crazy:

_________________
WATER'EM ALL!


Top
 Profile E-mail  
 
 
PostPosted: 28 Aug 2010 
ыыыы
User avatar
Joined: 17 May 2009
Posts: 952
Lоcаtion: Пушкино, МО
Age: 39
Name: Дмитрий
а ещё была ТРАХ :crazy: :true:

_________________
Витасу до Даймонда как Алсу до Руссоса | При переразмещении - спрашивать разрешение!!


Top
 Profile  
 
 
PostPosted: 28 Aug 2010 
Позитивный Южанин
User avatar
Joined: 07 May 2010
Posts: 1620
Lоcаtion: КРЫМ
Age: 43
Name: Алексей
Ну если повспоминать много чего было(в основном фанзины,многие рукописные)и газеты всяческие. :true:

_________________
WATER'EM ALL!


Top
 Profile E-mail  
 
 
PostPosted: 01 Sep 2010 
HAMMER
User avatar
Joined: 16 May 2009
Posts: 5325
Lоcаtion: Тверь
Age: 45
Name: Александр
ALEXUMER wrote:
В Давай-Давай лабазе

Ох мля ,бывал там не раз :true:


Top
 Profile E-mail  
 
Display posts from previous:  Sort by  
Post new topic Reply to topic  [ 10 posts ] 

All times are UTC + 3 hours


Who is online

Users browsing this forum: No registered users and 2 guests


You cannot post new topics in this forum
You cannot reply to topics in this forum
You cannot edit your posts in this forum
You cannot delete your posts in this forum
You cannot post attachments in this forum

Search for:
Яндекс.Метрика
Powered by phpBB © 2000, 2002, 2005, 2007 phpBB Group