\m/ 80's metal \m/

Информационно-аналитический форум "80 см пыли" (In Search We Trust) "У нас никто никуда не спешит"
Me For You - http://me-4u.com
It is currently 14 Nov 2018

All times are UTC + 3 hours

Spoiler
Chat - temporary registration for foreign users (please leave your application here)







Post new topic Reply to topic  [ 15 posts ] 
Author Message
 
PostPosted: 12 Aug 2010 
ыыыы
User avatar
Joined: 17 May 2009
Posts: 952
Lоcаtion: Пушкино, МО
Age: 40
Name: Дмитрий
Image


Жанр: Hard Rock
Происхождение исполнителя: США
Год издания: 1989
Год издания данного носителя: 1989
Страна-производитель носителя: Япония
Аудио кодек: FLAC
Тип рипа: image+.cue
Битрейт аудио: lossless
Продолжительность: 39:44
Рип: Собственный
Лейбл: ATLANTIC/WARNER-PIONEER
Каталоговый номер: 25P2-2494
Матрица: 25P2-2494 1 (SONY)

Треклист:
1. Big Guns 03:38
2. Sweet Little Sister 03:10
3. Can't Stand the Heartache 03:25
4. Piece of Me 02:48
5. 18 and Life 03:52
6. Rattlesnake Shake 03:09
7. Youth Gone Wild 03:19
8. Here I Am 03:10
9. Makin' a Mess 03:38
10. I Remember You 05:14
11. Midnight/Tornado 04:20

"Куй"
REM GENRE Rock
REM DATE 1989
REM DISCID 62094F0B
REM COMMENT "ExactAudioCopy v0.99pb5"
PERFORMER "Skid Row"
TITLE "Skid Row [25P2-2494]"
FILE "Skid Row - Skid Row [25P2-2494].flac" WAVE
TRACK 01 AUDIO
TITLE "Big Guns"
PERFORMER "Skid Row"
INDEX 01 00:00:00
TRACK 02 AUDIO
TITLE "Sweet Little Sister"
PERFORMER "Skid Row"
INDEX 01 03:38:32
TRACK 03 AUDIO
TITLE "Can't Stand The Heartache"
PERFORMER "Skid Row"
INDEX 01 06:48:22
TRACK 04 AUDIO
TITLE "Piece Of Me"
PERFORMER "Skid Row"
INDEX 01 10:12:60
TRACK 05 AUDIO
TITLE "18 And Life"
PERFORMER "Skid Row"
INDEX 00 12:59:67
INDEX 01 13:00:67
TRACK 06 AUDIO
TITLE "Rattlesnake Shake"
PERFORMER "Skid Row"
INDEX 00 16:51:30
INDEX 01 16:52:60
TRACK 07 AUDIO
TITLE "Youth Gone Wild"
PERFORMER "Skid Row"
INDEX 00 20:00:57
INDEX 01 20:02:05
TRACK 08 AUDIO
TITLE "Here I Am"
PERFORMER "Skid Row"
INDEX 01 23:20:70
TRACK 09 AUDIO
TITLE "Makin' A Mess"
PERFORMER "Skid Row"
INDEX 01 26:31:12
TRACK 10 AUDIO
TITLE "I Remember You"
PERFORMER "Skid Row"
INDEX 00 30:06:50
INDEX 01 30:09:42
TRACK 11 AUDIO
TITLE "Midnight / Tornado"
PERFORMER "Skid Row"
INDEX 00 35:23:45
INDEX 01 35:23:65


"Лог"
Exact Audio Copy V0.99 prebeta 5 from 4. May 2009

Отчёт EAC об извлечении, выполненном 26. января 2010, 22:16

Skid Row / Skid Row [25P2-2494]

Дисковод: ASUS DRW-2014S1 Adapter: 1 ID: 0

Режим чтения : Достоверность
Использование точного потока : Да
Отключение кэша аудио : Да
Использование указателей C2 : Нет

Коррекция смещения при чтении : 6
Способность читать области Lead-in и Lead-out : Нет
Заполнение пропущенных сэмплов тишиной : Да
Удаление блоков с тишиной в начале и конце : Нет
При вычислениях CRC использовались нулевые сэмплы : Да
Интерфейс : Установленный внешний ASPI-интерфейс

Выходной формат : Пользовательский кодировщик
Выбранный битрейт : 128 kBit/s
Качество : Высокий
Добавление ID3-тэга : Нет
Утилита сжатия : C:\Program Files\Exact Audio Copy\Flac\flac.exe
Дополнительные параметры : -6 -V -T "artist=%a" -T "title=%t" -T "album=%g" -T "date=%y" -T "tracknumber=%n" -T "genre=%m" -T "comment=EAC 0.99beta5 / FLAC 1.1.0 q6" %s


TOC извлечённого CD

Трек | Старт | Длительность | Начальный сектор | Конечный сектор
---------------------------------------------------------------------
1 | 0:00.00 | 3:38.32 | 0 | 16381
2 | 3:38.32 | 3:09.65 | 16382 | 30621
3 | 6:48.22 | 3:24.38 | 30622 | 45959
4 | 10:12.60 | 2:48.07 | 45960 | 58566
5 | 13:00.67 | 3:51.68 | 58567 | 75959
6 | 16:52.60 | 3:09.20 | 75960 | 90154
7 | 20:02.05 | 3:18.65 | 90155 | 105069
8 | 23:20.70 | 3:10.17 | 105070 | 119336
9 | 26:31.12 | 3:38.30 | 119337 | 135716
10 | 30:09.42 | 5:14.23 | 135717 | 159289
11 | 35:23.65 | 4:19.60 | 159290 | 178774


Характеристики диапазона извлечения и сообщения об ошибках

Выбранный диапазон

Имя файла Y:\Музыка\Skid Row\1989 Skid Row\Skid Row - Skid Row [25P2-2494].wav

Пиковый уровень 100.0 %
Качество диапазона 100.0 %
CRC копии 83B84F98
Копирование... OK

Ошибок не произошло


AccurateRip: сводка

Трек 1 нет в базе данных
Трек 2 нет в базе данных
Трек 3 нет в базе данных
Трек 4 нет в базе данных
Трек 5 нет в базе данных
Трек 6 нет в базе данных
Трек 7 нет в базе данных
Трек 8 нет в базе данных
Трек 9 нет в базе данных
Трек 10 нет в базе данных
Трек 11 нет в базе данных

Ни одного трека нет в базе AccurateRip

Конец отчёта


Состав:
Sebastian Bach: Vocals
Scott Hill: Guitar
Dave "Snake" Sabo: Guitar
Rachel Bolan: Bass
Rob Affuso: Drums

25P2-2494

_________________
Витасу до Даймонда как Алсу до Руссоса | При переразмещении - спрашивать разрешение!!


Top
 Profile  
 
 
PostPosted: 12 Aug 2010 
HAMMER
User avatar
Joined: 16 May 2009
Posts: 5447
Lоcаtion: Тверь
Age: 45
Name: Александр
:thanx:


Top
 Profile E-mail  
 
 
PostPosted: 12 Aug 2010 
Труъ
User avatar
Joined: 14 Jul 2010
Posts: 104
Lоcаtion: Украина, Донецк
Age: 33
Name: Санёк
Спасибо тебе огромадное, давно мечтал услышать этот шедевр на японце :true: :true: :true:

_________________
Rock 'N' Roll is the only thing that keeps me from breaking apart (c)


Top
 Profile E-mail  
 
 
PostPosted: 13 Aug 2010 
Alive Again
User avatar
Joined: 17 Dec 2008
Posts: 4740
Lоcаtion: Курск Воронеж Оскол
Age: 44
Name: Дмитрий
самый лучший :thanx:


Top
 Profile E-mail  
 
 
PostPosted: 13 Aug 2010 
Пионэръ
User avatar
Joined: 02 Jul 2010
Posts: 45
Lоcаtion: Сочи
Age: 46
Name: Борис
СПАСИБО !!! :true: :true:


Top
 Profile E-mail  
 
 
PostPosted: 13 Aug 2010 
А может смените мне статус?..
User avatar
Joined: 01 Jun 2008
Posts: 559
Lоcаtion: Россия
Age: 42
Name: Вадик
sycamore wrote:
давно мечтал услышать этот шедевр на японце

А у японцев, что - матрица другая? Или Skid Row для японцев сделали специальное сведение альбома?


Top
 Profile  
 
 
PostPosted: 13 Aug 2010 
Труъ
User avatar
Joined: 14 Jul 2010
Posts: 104
Lоcаtion: Украина, Донецк
Age: 33
Name: Санёк
А есть другое мнение? ;)

_________________
Rock 'N' Roll is the only thing that keeps me from breaking apart (c)


Top
 Profile E-mail  
 
 
PostPosted: 13 Aug 2010 
Хиппей (support team)
User avatar
Joined: 30 Jul 2007
Posts: 107939
Lоcаtion: Киев (Kyiv, UA)
Age: 45
Name: Andrey
Нереально сильный альбом :true:

_________________


Top
 Profile E-mail  
 
 
PostPosted: 13 Aug 2010 
А может смените мне статус?..
User avatar
Joined: 01 Jun 2008
Posts: 559
Lоcаtion: Россия
Age: 42
Name: Вадик
Scatterbrain wrote:
Нереально сильный альбом :true:

Вот последующие парочка альбомов точно нереально круты! Манки бизнес в 1991 замусолил, и клип отличный!
sycamore wrote:
А есть другое мнение? ;)

Что-то связывает тебя с Японией... :vic:


Top
 Profile  
 
 
PostPosted: 13 Aug 2010 
Old Time Rock`n`Roll
User avatar
Joined: 23 Jun 2008
Posts: 3363
Lоcаtion: г.Ульяновск
Age: 40
Name: Константин
Спасибо за альбом :thanx:
Помнится когда-то я составлял топ-10 рок-баллад 80-х, I Remember You или попало туда, или было на подходе.


Top
 Profile  
 
 
PostPosted: 14 Aug 2010 
Motörheadache
User avatar
Joined: 04 Feb 2010
Posts: 1294
Lоcаtion: Впереди- горы,позади-степи
Age: 45
Name: Александр
Следующий нравитсо больше,но этот всё равно нормуль какбэ.....
Пасибо,Димитрий ! :smile: :thanx:

_________________
Eine Nation, Ein Land, Eine Schnaps!

Наш священный долг:защищать Родину,и соблюдать правила личной гигиены....!


Top
 Profile E-mail  
 
 
PostPosted: 14 Aug 2010 
Труъ
User avatar
Joined: 14 Jul 2010
Posts: 104
Lоcаtion: Украина, Донецк
Age: 33
Name: Санёк
rats wrote:
Что-то связывает тебя с Японией... :vic:


Точно подметил. Я тайный агент японской разведки :au:

_________________
Rock 'N' Roll is the only thing that keeps me from breaking apart (c)


Top
 Profile E-mail  
 
 
PostPosted: 14 Aug 2010 
Хиппей (support team)
User avatar
Joined: 30 Jul 2007
Posts: 107939
Lоcаtion: Киев (Kyiv, UA)
Age: 45
Name: Andrey
sycamore wrote:
Я тайный агент японской разведки

А ксива есть? :rabo:

_________________


Top
 Profile E-mail  
 
 
PostPosted: 15 Aug 2010 
metallpaparazzy
User avatar
Joined: 20 Dec 2009
Posts: 674
Lоcаtion: Днепропетровск
Age: 43
Name: Геннадий
:thanx:
Youth Gone Wild :true: :true: :true:
18 and Life :meloman: когда-то я ее даже полабывал :punko: думали коврижку забацать :oops:


Top
 Profile E-mail  
 
 
PostPosted: 15 Aug 2010 
Труъ
User avatar
Joined: 14 Jul 2010
Posts: 104
Lоcаtion: Украина, Донецк
Age: 33
Name: Санёк
Да, именно эти две вещи мне и нравятся больше всего. А пасспорт есть. Но нет сканера. Поэтому предъявить будет затруднительно :smile:

_________________
Rock 'N' Roll is the only thing that keeps me from breaking apart (c)


Top
 Profile E-mail  
 
Display posts from previous:  Sort by  
Post new topic Reply to topic  [ 15 posts ] 

All times are UTC + 3 hours


Who is online

Users browsing this forum: No registered users and 6 guests


You cannot post new topics in this forum
You cannot reply to topics in this forum
You cannot edit your posts in this forum
You cannot delete your posts in this forum
You cannot post attachments in this forum

Search for:
Яндекс.Метрика
Powered by phpBB © 2000, 2002, 2005, 2007 phpBB Group