\m/ 80's metal \m/

Информационно-аналитический форум "80 см пыли" (In Search We Trust) "У нас никто никуда не спешит"
Me For You - http://me-4u.com
It is currently 20 Nov 2018

All times are UTC + 3 hours

Spoiler
Chat - temporary registration for foreign users (please leave your application here)







Post new topic Reply to topic  [ 17 posts ] 
Author Message
 
PostPosted: 11 Aug 2010 
Пионэръ
Joined: 23 Aug 2008
Posts: 33
Lоcаtion: Slovakia
Age: 54
Name: Rudolf
Seventh Omen - 1995 - Majestic [ape]

Image

1. MJ-12 04:44
2. Another 05:02
3. The Fall Of Mu 04:52
4. Into Silence 07:09
5. Out Of Reach 04:34
6. Blind 04:46
7. Seventh Omen 06:44
8. A State Of Decay 04:04
9. Greed 05:47
10. Scraping Ground 03:33
11. The Dark Side 05:15
12. Goodbye 04:00

Part1:200MB Part2:199MB


Top
 Profile  
 
 
PostPosted: 11 Aug 2010 
Прокъмитолист
User avatar
Joined: 12 Aug 2007
Posts: 6504
Lоcаtion: Санктъ-Петербуркъ
Age: 51
Name: Олекъ
thanks a lot! :thanx: :true:

_________________
прокъметол - это музыко, от которово есть прок (ы)


Top
 Profile  
 
 
PostPosted: 11 Aug 2010 
Хиппей (support team)
User avatar
Joined: 30 Jul 2007
Posts: 108198
Lоcаtion: Киев (Kyiv, UA)
Age: 45
Name: Andrey
Thanks Rudolf :thanx:

_________________


Top
 Profile E-mail  
 
 
PostPosted: 12 Aug 2010 
Old Time Rock`n`Roll
User avatar
Joined: 23 Jun 2008
Posts: 3363
Lоcаtion: г.Ульяновск
Age: 40
Name: Константин
Спасибо за альбом :thanx: Если что - оффсет нулевой, в остальном - абсолютно правильный рип


Top
 Profile  
 
 
PostPosted: 13 Aug 2010 
Хиппей (support team)
User avatar
Joined: 30 Jul 2007
Posts: 108198
Lоcаtion: Киев (Kyiv, UA)
Age: 45
Name: Andrey
oldrocker wrote:
Если что - оффсет нулевой, в остальном - абсолютно правильный рип

А, Костя, запости, плиз, лог и куй, а то я еще не качал... :oops:

_________________


Top
 Profile E-mail  
 
 
PostPosted: 13 Aug 2010 
Old Time Rock`n`Roll
User avatar
Joined: 23 Jun 2008
Posts: 3363
Lоcаtion: г.Ульяновск
Age: 40
Name: Константин
Style: American Power Metal

Log
EAC extraction logfile from 28. July 2010, 16:48 for CD
Seventh Omen / Majestic

Used drive : HL-DT-STDVDRAM GSA-4163B Adapter: 1 ID: 0
Read mode : Secure with NO C2, accurate stream, disable cache
Combined read/write offset correction : 0
Overread into Lead-In and Lead-Out : No

Used output format : Monkey's Audio Lossless Encoder v3.99 DLL
Normal Lossless Compression

Other options :
Fill up missing offset samples with silence : Yes
Delete leading and trailing silent blocks : No
Installed external ASPI interface


Range status and errors
Selected range
Filename E:\~CD\Seventh Omen - Majestic.ape

Peak level 98.8 %
Range quality 100.0 %
CRC 636E4571
Copy OK

No errors occured

End of status report


Cue
REM GENRE Metal
REM DATE 1995
REM DISCID B40E380C
REM COMMENT "ExactAudioCopy v0.95b4"
PERFORMER "Seventh Omen"
TITLE "Majestic"
FILE "Seventh Omen - Majestic.ape" WAVE
TRACK 01 AUDIO
TITLE "MJ-12"
PERFORMER "Seventh Omen"
INDEX 01 00:00:00
TRACK 02 AUDIO
TITLE "Another"
PERFORMER "Seventh Omen"
INDEX 00 04:44:65
INDEX 01 04:46:47
TRACK 03 AUDIO
TITLE "The Fall of Mu"
PERFORMER "Seventh Omen"
INDEX 00 09:46:47
INDEX 01 09:48:60
TRACK 04 AUDIO
TITLE "Into Silence"
PERFORMER "Seventh Omen"
INDEX 01 14:41:07
TRACK 05 AUDIO
TITLE "Out of Reach"
PERFORMER "Seventh Omen"
INDEX 00 21:50:30
INDEX 01 21:51:65
TRACK 06 AUDIO
TITLE "Blind"
PERFORMER "Seventh Omen"
INDEX 00 26:24:70
INDEX 01 26:26:40
TRACK 07 AUDIO
TITLE "Seventh Omen"
PERFORMER "Seventh Omen"
INDEX 00 31:10:60
INDEX 01 31:13:05
TRACK 08 AUDIO
TITLE "A State of Decay"
PERFORMER "Seventh Omen"
INDEX 00 37:55:42
INDEX 01 37:57:12
TRACK 09 AUDIO
TITLE "Greed"
PERFORMER "Seventh Omen"
INDEX 00 42:01:00
INDEX 01 42:02:40
TRACK 10 AUDIO
TITLE "Scraping Ground"
PERFORMER "Seventh Omen"
INDEX 01 47:50:25
TRACK 11 AUDIO
TITLE "The dark Side"
PERFORMER "Seventh Omen"
INDEX 00 51:21:25
INDEX 01 51:23:57
TRACK 12 AUDIO
TITLE "Goodbye"
PERFORMER "Seventh Omen"
INDEX 00 56:37:57
INDEX 01 56:39:25


Top
 Profile  
 
 
PostPosted: 13 Aug 2010 
Хиппей (support team)
User avatar
Joined: 30 Jul 2007
Posts: 108198
Lоcаtion: Киев (Kyiv, UA)
Age: 45
Name: Andrey
:dance:

_________________


Top
 Profile E-mail  
 
 
PostPosted: 24 Nov 2011 
Power Metal Maniac
User avatar
Joined: 09 Aug 2008
Posts: 6359
Lоcаtion: Москва
Age: 40
Name: Егор
перезалейте, будьте так добры!

_________________
Long Live Metal!


Top
 Profile  
 
 
PostPosted: 25 Nov 2011 
Хиппей (support team)
User avatar
Joined: 30 Jul 2007
Posts: 108198
Lоcаtion: Киев (Kyiv, UA)
Age: 45
Name: Andrey
Хм, не нашёл у себя на винте... :vic:

_________________


Top
 Profile E-mail  
 
 
PostPosted: 25 Nov 2011 
Прокъмитолист
User avatar
Joined: 12 Aug 2007
Posts: 6504
Lоcаtion: Санктъ-Петербуркъ
Age: 51
Name: Олекъ
а я нашел. залью-запощу :dance:

_________________
прокъметол - это музыко, от которово есть прок (ы)


Top
 Profile  
 
 
PostPosted: 25 Nov 2011 
Прокъмитолист
User avatar
Joined: 12 Aug 2007
Posts: 6504
Lоcаtion: Санктъ-Петербуркъ
Age: 51
Name: Олекъ
забирайте: MultiUpload

_________________
прокъметол - это музыко, от которово есть прок (ы)


Top
 Profile  
 
 
PostPosted: 25 Nov 2011 
Power Metal Maniac
User avatar
Joined: 09 Aug 2008
Posts: 6359
Lоcаtion: Москва
Age: 40
Name: Егор
spiralarch
:thanx:

_________________
Long Live Metal!


Top
 Profile  
 
 
PostPosted: 25 Nov 2011 
Хиппей (support team)
User avatar
Joined: 30 Jul 2007
Posts: 108198
Lоcаtion: Киев (Kyiv, UA)
Age: 45
Name: Andrey
:thanx:

mirror: Narod

_________________


Top
 Profile E-mail  
 
 
PostPosted: 26 Nov 2011 
Пионэръ
Joined: 25 Aug 2011
Posts: 48
Lоcаtion: Worl
Name: Zoltan Tivesko
:thanx:


Top
 Profile E-mail  
 
 
PostPosted: 23 Jul 2012 
Труъ
User avatar
Joined: 05 Oct 2008
Posts: 194
Lоcаtion: Saint Petersburg
Age: 45
Name: Jesse
Большущее спасибо Андрей за перезалив на народ! Не было такой команды у меня, а название знакомо вроде...


Top
 Profile  
 
 
PostPosted: 24 Jul 2012 
А может смените мне статус?..
User avatar
Joined: 24 Dec 2008
Posts: 621
Age: 44
Name: Дмитрий
:losik:


Top
 Profile  
 
 
PostPosted: 20 Aug 2012 
Труъ
User avatar
Joined: 05 Oct 2008
Posts: 194
Lоcаtion: Saint Petersburg
Age: 45
Name: Jesse
Очень приличная команда оказалась. Ещё бы два последующих альбома достать... :thanx:


Top
 Profile  
 
Display posts from previous:  Sort by  
Post new topic Reply to topic  [ 17 posts ] 

All times are UTC + 3 hours


Who is online

Users browsing this forum: No registered users and 2 guests


You cannot post new topics in this forum
You cannot reply to topics in this forum
You cannot edit your posts in this forum
You cannot delete your posts in this forum
You cannot post attachments in this forum

Search for:
Яндекс.Метрика
Powered by phpBB © 2000, 2002, 2005, 2007 phpBB Group