\m/ 80's metal \m/

Информационно-аналитический форум "80 см пыли" (In Search We Trust) "У нас никто никуда не спешит"
Me For You - http://me-4u.com
It is currently 19 Sep 2018

All times are UTC + 3 hours

Spoiler
Chat - temporary registration for foreign users (please leave your application here)







Post new topic Reply to topic  [ 4 posts ] 
Author Message
 
PostPosted: 28 Jul 2010 
Old Time Rock`n`Roll
User avatar
Joined: 23 Jun 2008
Posts: 3354
Lоcаtion: г.Ульяновск
Age: 40
Name: Константин
Stranger (USA) – Stranger (1982)

Image

Year: 1982
Style: Hard Rock, Hard`n`Heavy
Country: USA
Format: FLAC (tracks) + log + cue + scans & mp3-320
Size: 194 Mb + 65 Mb

Tracklist:
01. Jackie's So Bad (2:48)
02. Nobody's Fool (2:59)
03. Ready To Fight (2:38)
04. My Kind Of Woman (3:18)
05. Shake Down (3:09)
06. Rock & Roll You Baby (3:21)
07. Swamp Woman (2:33)
08. Dirty & Mean (2:57)
09. Comin' Get To You (2:42)
10. Get On Up (2:14)

TPT – 29:04

Line Up
Greg Billings - Lead Vocals
Jai Winding - Organ
John Price - Drums
Ronnie Garvin - Guitar, Backing vocals
Tom Cardenas - Bass

Album Credits:
Produced: Tom Werman
Engineered: Gary Landinsky
Mixed: Gary Landinsky
Mastered: George Marino

Log
Exact Audio Copy V0.99 prebeta 4 from 23. January 2008

EAC extraction logfile from 3. February 2010, 21:21

Stranger / Stranger

Used drive : LITE-ON DVDRW SHW-160P6S Adapter: 0 ID: 0

Read mode : Secure
Utilize accurate stream : Yes
Defeat audio cache : Yes
Make use of C2 pointers : No

Read offset correction : 6
Overread into Lead-In and Lead-Out : No
Fill up missing offset samples with silence : Yes
Delete leading and trailing silent blocks : No
Null samples used in CRC calculations : Yes
Used interface : Native Win32 interface for Win NT & 2000
Gap handling : Appended to previous track

Used output format : Internal WAV Routines
Sample format : 44.100 Hz; 16 Bit; Stereo


TOC of the extracted CD

Track | Start | Length | Start sector | End sector
---------------------------------------------------------
1 | 0:00.00 | 2:51.12 | 0 | 12836
2 | 2:51.12 | 3:01.30 | 12837 | 26441
3 | 5:52.42 | 2:41.30 | 26442 | 38546
4 | 8:33.72 | 3:20.40 | 38547 | 53586
5 | 11:54.37 | 3:11.20 | 53587 | 67931
6 | 15:05.57 | 3:22.58 | 67932 | 83139
7 | 18:28.40 | 2:35.70 | 83140 | 94834
8 | 21:04.35 | 2:59.57 | 94835 | 108316
9 | 24:04.17 | 2:46.13 | 108317 | 120779
10 | 26:50.30 | 2:14.15 | 120780 | 130844


Track 1

Filename C:\Documents and Settings\user1\My Documents\My Music\Stranger - 01 - Jackie's So Bad.wav

Pre-gap length 0:00:02.00

Peak level 95.8 %
Track quality 100.0 %
Test CRC A6F3EE93
Copy CRC A6F3EE93
Cannot be verified as accurate (confidence 1) [B8A7CEBB], AccurateRip returned [D843D71B]
Copy OK

Track 2

Filename C:\Documents and Settings\user1\My Documents\My Music\Stranger - 02 - Nobody's Fool.wav

Pre-gap length 0:00:02.00

Peak level 92.7 %
Track quality 100.0 %
Test CRC 16710194
Copy CRC 16710194
Cannot be verified as accurate (confidence 1) [8657D29F], AccurateRip returned [DECE7CF1]
Copy OK

Track 3

Filename C:\Documents and Settings\user1\My Documents\My Music\Stranger - 03 - Ready To Fight.wav

Pre-gap length 0:00:02.00

Peak level 96.4 %
Track quality 100.0 %
Test CRC 4A61FE2F
Copy CRC 4A61FE2F
Cannot be verified as accurate (confidence 1) [5CA96815], AccurateRip returned [54593E7F]
Copy OK

Track 4

Filename C:\Documents and Settings\user1\My Documents\My Music\Stranger - 04 - My Kind Of woman.wav

Pre-gap length 0:00:01.98

Peak level 93.3 %
Track quality 100.0 %
Test CRC 842E24B9
Copy CRC 842E24B9
Cannot be verified as accurate (confidence 1) [0447136A], AccurateRip returned [D1F0E748]
Copy OK

Track 5

Filename C:\Documents and Settings\user1\My Documents\My Music\Stranger - 05 - Shake Down.wav

Pre-gap length 0:00:02.00

Peak level 95.2 %
Track quality 99.9 %
Test CRC D7A96447
Copy CRC D7A96447
Cannot be verified as accurate (confidence 1) [4B55311E], AccurateRip returned [E25A316E]
Copy OK

Track 6

Filename C:\Documents and Settings\user1\My Documents\My Music\Stranger - 06 - Rock & Roll You Baby.wav

Pre-gap length 0:00:02.00

Peak level 96.5 %
Track quality 100.0 %
Test CRC FA57217E
Copy CRC FA57217E
Cannot be verified as accurate (confidence 1) [2EF86901], AccurateRip returned [09C5E7FD]
Copy OK

Track 7

Filename C:\Documents and Settings\user1\My Documents\My Music\Stranger - 07 - Swamp Woman.wav

Pre-gap length 0:00:02.00

Peak level 96.5 %
Track quality 100.0 %
Test CRC 5E5F69A3
Copy CRC 5E5F69A3
Cannot be verified as accurate (confidence 1) [5FAA80CF], AccurateRip returned [86A9F4B9]
Copy OK

Track 8

Filename C:\Documents and Settings\user1\My Documents\My Music\Stranger - 08 - Dirty & Mean.wav

Pre-gap length 0:00:02.00

Peak level 94.8 %
Track quality 100.0 %
Test CRC 20F5F1EC
Copy CRC 20F5F1EC
Cannot be verified as accurate (confidence 1) [FE8D777D], AccurateRip returned [8B6C4105]
Copy OK

Track 9

Filename C:\Documents and Settings\user1\My Documents\My Music\Stranger - 09 - Comin' To Get You.wav

Pre-gap length 0:00:02.00

Peak level 99.8 %
Track quality 100.0 %
Test CRC 5A318B32
Copy CRC 5A318B32
Cannot be verified as accurate (confidence 1) [667F2A3C], AccurateRip returned [D8321B9A]
Copy OK

Track 10

Filename C:\Documents and Settings\user1\My Documents\My Music\Stranger - 10 - Get On Up.wav

Pre-gap length 0:00:02.00

Peak level 96.6 %
Track quality 100.0 %
Test CRC 9D43067C
Copy CRC 9D43067C
Cannot be verified as accurate (confidence 1) [674E114A], AccurateRip returned [456AB77B]
Copy OK


No tracks could be verified as accurate
You may have a different pressing from the one(s) in the database

No errors occurred

End of status report



Cue
REM GENRE "Hard Rock"
REM DATE 1998
REM DISCID 6D06D00A
REM COMMENT "ExactAudioCopy v0.99pb4"
PERFORMER "Stranger"
TITLE "Stranger"
FILE "Stranger - 01 - Jackie's So Bad.wav" WAVE
TRACK 01 AUDIO
TITLE "Jackie's So Bad"
PERFORMER "Stranger"
INDEX 01 00:00:00
TRACK 02 AUDIO
TITLE "Nobody's Fool"
PERFORMER "Stranger"
INDEX 00 02:49:12
FILE "Stranger - 02 - Nobody's Fool.wav" WAVE
INDEX 01 00:00:00
TRACK 03 AUDIO
TITLE "Ready To Fight"
PERFORMER "Stranger"
INDEX 00 02:59:30
FILE "Stranger - 03 - Ready To Fight.wav" WAVE
INDEX 01 00:00:00
TRACK 04 AUDIO
TITLE "My Kind Of woman"
PERFORMER "Stranger"
INDEX 00 02:39:31
FILE "Stranger - 04 - My Kind Of woman.wav" WAVE
INDEX 01 00:00:00
TRACK 05 AUDIO
TITLE "Shake Down"
PERFORMER "Stranger"
INDEX 00 03:18:40
FILE "Stranger - 05 - Shake Down.wav" WAVE
INDEX 01 00:00:00
TRACK 06 AUDIO
TITLE "Rock & Roll You Baby"
PERFORMER "Stranger"
INDEX 00 03:09:20
FILE "Stranger - 06 - Rock & Roll You Baby.wav" WAVE
INDEX 01 00:00:00
TRACK 07 AUDIO
TITLE "Swamp Woman"
PERFORMER "Stranger"
INDEX 00 03:20:58
FILE "Stranger - 07 - Swamp Woman.wav" WAVE
INDEX 01 00:00:00
TRACK 08 AUDIO
TITLE "Dirty & Mean"
PERFORMER "Stranger"
INDEX 00 02:33:70
FILE "Stranger - 08 - Dirty & Mean.wav" WAVE
INDEX 01 00:00:00
TRACK 09 AUDIO
TITLE "Comin' To Get You"
PERFORMER "Stranger"
INDEX 00 02:57:57
FILE "Stranger - 09 - Comin' To Get You.wav" WAVE
INDEX 01 00:00:00
TRACK 10 AUDIO
TITLE "Get On Up"
PERFORMER "Stranger"
INDEX 00 02:44:13
FILE "Stranger - 10 - Get On Up.wav" WAVE
INDEX 01 00:00:00



FLAC
megaupload-FLAC
narod-FLAC

mp3-320
megaupload-320


Когда-то я выкладывал этот альбом в мп3, теперь вот попался и в лосе, пусть и потрековом. Один из самых коротких дебютных альбомов в истории крупных звукозаписывающих компаний (Epic), пара обязательных радиоформатных вещей, впрочем хорошего уровня, остальное – мелодик хард-н-хэви под влиянием Дип Перпл, Гиллановский вокал, соответствующая соло-гитара. Спродюссировал альбом Том Уэрман (Molly Hatchet, Ted Nugent, Motley Crue, Twisted Sister, Dokken, Kix и т.д.) Серьезного успеха диск не имел и после неудачи группа надолго исчезла из поля зрения.
За рип cпасибо товарищу grayghost

Image


Top
 Profile  
 
 
PostPosted: 28 Jul 2010 
Хиппей (support team)
User avatar
Joined: 30 Jul 2007
Posts: 106323
Lоcаtion: Киев (Kyiv, UA)
Age: 45
Name: Andrey
Костя, спасибо! :thanx:

_________________


Top
 Profile E-mail  
 
 
PostPosted: 04 Aug 2010 
Персональный статус
Joined: 02 Apr 2010
Posts: 223
Name: Андрей
Большое спасибо!


Top
 Profile  
 
 
PostPosted: 06 Aug 2010 
Почётный металлург
User avatar
Joined: 15 Sep 2007
Posts: 4357
Lоcаtion: Хабаровск
Age: 58
Name: чуть выше
Спасибо огромное!! :thanx:

_________________
Коль будешь людей ты ослами честить,
тебе человеком меж них не прослыть!
(Саади, персидский поэт, 13в.)


Top
 Profile  
 
Display posts from previous:  Sort by  
Post new topic Reply to topic  [ 4 posts ] 

All times are UTC + 3 hours


Who is online

Users browsing this forum: No registered users and 1 guest


You cannot post new topics in this forum
You cannot reply to topics in this forum
You cannot edit your posts in this forum
You cannot delete your posts in this forum
You cannot post attachments in this forum

Search for:
Яндекс.Метрика
Powered by phpBB © 2000, 2002, 2005, 2007 phpBB Group