\m/ 80's metal \m/

Информационно-аналитический форум "80 см пыли" (In Search We Trust) "У нас никто никуда не спешит"
Железнодорожная биржа - RailAgent
It is currently 23 Jul 2018

All times are UTC + 3 hours

Spoiler
Chat - temporary registration for foreign users (please leave your application here)







Post new topic Reply to topic  [ 5 posts ] 
Author Message
 
PostPosted: 23 Jul 2010 
5cm
User avatar
Joined: 01 Mar 2009
Posts: 61
Name: Сергей
Image

Year: 1991
Style: Thrash Metal, Power Metal
Country: United Kingdom
Label: Noise Records
Format: Flac+Cue+Log
Size: 342 Mb

Tracklist:
1. The Demise of History 07:52
2. Theological Void 07:26
3. Paint the World Black 05:25
4. Dumbstruck 05:14
5. The Voice of Time 06:45
6. Dreamscape 08:47
7. Without a Trace 07:24
8. Mourning Has Broken 02:05
========================
Total playing time: 50:58

LOG
Exact Audio Copy V0.99 prebeta 5 from 4. May 2009

EAC extraction logfile from 22. July 2010, 19:39

Sabbat / Mourning Has Broken

Used drive : _NEC DVD_RW ND-4551A Adapter: 0 ID: 0

Read mode : Secure
Utilize accurate stream : Yes
Defeat audio cache : Yes
Make use of C2 pointers : No

Read offset correction : 48
Overread into Lead-In and Lead-Out : No
Fill up missing offset samples with silence : Yes
Delete leading and trailing silent blocks : No
Null samples used in CRC calculations : Yes
Used interface : Installed external ASPI interface

Used output format : User Defined Encoder
Selected bitrate : 768 kBit/s
Quality : High
Add ID3 tag : No
Command line compressor : C:\Program Files\Exact Audio Copy\FLAC\FLAC.EXE
Additional command line options : -8 -V -T "ARTIST=%a" -T "TITLE=%t" -T "ALBUM=%g" -T "DATE=%y" -T "TRACKNUMBER=%n" -T "GENRE=%m" -T "COMMENT=%e" %s -o %d


TOC of the extracted CD

Track | Start | Length | Start sector | End sector
---------------------------------------------------------
1 | 0:00.00 | 7:52.35 | 0 | 35434
2 | 7:52.35 | 7:26.00 | 35435 | 68884
3 | 15:18.35 | 5:25.17 | 68885 | 93276
4 | 20:43.52 | 5:13.60 | 93277 | 116811
5 | 25:57.37 | 6:44.68 | 116812 | 147179
6 | 32:42.30 | 8:46.72 | 147180 | 186701
7 | 41:29.27 | 7:23.73 | 186702 | 219999
8 | 48:53.25 | 2:04.50 | 220000 | 229349


Range status and errors

Selected range

Filename D:\FLACattack\Sabbat - Mourning Has Broken.wav

Peak level 100.0 %
Range quality 99.9 %
Copy CRC 4BADFD82
Copy OK

No errors occurred


AccurateRip summary

Track 1 accurately ripped (confidence 3) [BD3D6324]
Track 2 accurately ripped (confidence 3) [B0FC7B80]
Track 3 accurately ripped (confidence 3) [20D31B31]
Track 4 accurately ripped (confidence 3) [51245387]
Track 5 accurately ripped (confidence 3) [F37FECF5]
Track 6 accurately ripped (confidence 3) [610F09A8]
Track 7 accurately ripped (confidence 3) [A8DE6D2D]
Track 8 accurately ripped (confidence 3) [829F21F3]

All tracks accurately ripped

End of status report


NAROD


Top
 Profile  
 
 
PostPosted: 23 Jul 2010 
Зарегился вот...
Joined: 22 Jul 2010
Posts: 9
Lоcаtion: Украина
Name: Андрей
Спасибо!
Не самый сильный их альбом, но все равно, спасибо за лосслесс :)


Top
 Profile E-mail  
 
 
PostPosted: 23 Jul 2010 
Хиппей (support team)
User avatar
Joined: 30 Jul 2007
Posts: 105221
Lоcаtion: Киев (Kyiv, UA)
Age: 45
Name: Andrey
Чёт они никак новый после реуниона не запишут :vic:

_________________


Top
 Profile E-mail  
 
 
PostPosted: 23 Jul 2010 
metallpaparazzy
User avatar
Joined: 20 Dec 2009
Posts: 674
Lоcаtion: Днепропетровск
Age: 43
Name: Геннадий
О, надо качнуть, спасибо! а то че-то в свое время не впер меня этот бэнд :vic:
А вот SKYCLAD -- почти весь есть на сд :true:
Scatterbrain wrote:
Чёт они никак новый после реуниона не запишут

а они и не собирались, насколько я читал в прессе... собрались только для концертной деятельности, и может запишут концертный альбом. хотя, аппетит приходит во время лаба, :nunu: может и разродятся...


Top
 Profile E-mail  
 
 
PostPosted: 10 Nov 2011 
Power Metal Maniac
User avatar
Joined: 09 Aug 2008
Posts: 6197
Lоcаtion: Москва
Age: 40
Name: Егор
Еще в конце прошлого века пиратку такую купил. Послушал, расстроился - никакой альбом, печальный, неяркий и занудный. Потом несколько лет избегал данной группы, а зря - первые 2 альбома весьма хороши. Да уж, похоже без Валкиера что Sabbat, что Skyclad неспособны записывать хорошие диски.

_________________
Long Live Metal!


Top
 Profile  
 
Display posts from previous:  Sort by  
Post new topic Reply to topic  [ 5 posts ] 

All times are UTC + 3 hours


Who is online

Users browsing this forum: No registered users and 2 guests


You cannot post new topics in this forum
You cannot reply to topics in this forum
You cannot edit your posts in this forum
You cannot delete your posts in this forum
You cannot post attachments in this forum

Search for:
Яндекс.Метрика
cron
Powered by phpBB © 2000, 2002, 2005, 2007 phpBB Group