\m/ 80's metal \m/

Информационно-аналитический форум "80 см пыли" (In Search We Trust) "У нас никто никуда не спешит"
Me For You - http://me-4u.com
It is currently 20 Nov 2018

All times are UTC + 3 hours

Spoiler
Chat - temporary registration for foreign users (please leave your application here)







Post new topic Reply to topic  [ 4 posts ] 
Author Message
 
PostPosted: 22 Jul 2010 
ыыыы
User avatar
Joined: 17 May 2009
Posts: 952
Lоcаtion: Пушкино, МО
Age: 40
Name: Дмитрий
Image


Жанр: Hard Rock
Происхождение исполнителя: Англия
Год издания: 1987
Год издания данного носителя: 1987
Страна-производитель носителя: Япония
Аудио кодек: FLAC
Тип рипа: image+.cue
Битрейт аудио: lossless
Продолжительность: 41:17
Рип: Собственный
Лейбл: BMG-ARIOLA/VICTOR
Каталоговый номер: R32P-1109
Матрица: R32P-1109-A1C 21 (JVC)

Треклист:
1. Emergency 03:36
2. Cant Fight The Nights 04:02
3. Young Heart 03:55
4. Just Love Me 04:00
5. Break Down The Walls 05:23
6. Under Fire 04:16
7. Devil Woman (Cliff Richard cover) 03:31
8. Talk To Me 03:53
9. When The Love Is Over 04:23
10. Telephone 04:17

"Куй"
REM GENRE "Hard Rock"
REM DATE 1987
REM DISCID 8809AD0A
REM COMMENT "ExactAudioCopy v0.99pb5"
PERFORMER "Shy"
TITLE "Excess All Areas [R32P-1109]"
FILE "Shy - Excess All Areas [R32P-1109].flac" WAVE
TRACK 01 AUDIO
TITLE "Emergency"
PERFORMER "Shy"
INDEX 00 00:00:00
INDEX 01 00:00:37
TRACK 02 AUDIO
TITLE "Canґt Fight The Nights"
PERFORMER "Shy"
INDEX 01 03:36:40
TRACK 03 AUDIO
TITLE "Young Heart"
PERFORMER "Shy"
INDEX 01 07:38:50
TRACK 04 AUDIO
TITLE "Just Love Me"
PERFORMER "Shy"
INDEX 01 11:33:52
TRACK 05 AUDIO
TITLE "Break Down The Walls"
PERFORMER "Shy"
INDEX 01 15:33:47
TRACK 06 AUDIO
TITLE "Under Fire"
PERFORMER "Shy"
INDEX 01 20:57:00
TRACK 07 AUDIO
TITLE "Devil Woman"
PERFORMER "Shy"
INDEX 01 25:13:25
TRACK 08 AUDIO
TITLE "Talk To Me"
PERFORMER "Shy"
INDEX 01 28:44:12
TRACK 09 AUDIO
TITLE "When The Love Is Over"
PERFORMER "Shy"
INDEX 01 32:36:62
TRACK 10 AUDIO
TITLE "Telephone"
PERFORMER "Shy"
INDEX 01 37:00:12


"Лог"
Exact Audio Copy V0.99 prebeta 5 from 4. May 2009

Отчёт EAC об извлечении, выполненном 21. июля 2010, 10:05

Shy / Excess All Areas [R32P-1109]

Дисковод: Optiarc DVD RW AD-7200A Adapter: 1 ID: 0

Режим чтения : Достоверность
Использование точного потока : Да
Отключение кэша аудио : Да
Использование указателей C2 : Нет

Коррекция смещения при чтении : 48
Способность читать области Lead-in и Lead-out : Нет
Заполнение пропущенных сэмплов тишиной : Да
Удаление блоков с тишиной в начале и конце : Нет
При вычислениях CRC использовались нулевые сэмплы : Да
Интерфейс : Встроенный Win32-интерфейс для Win NT/2000

Выходной формат : Пользовательский кодировщик
Выбранный битрейт : 128 kBit/s
Качество : Высокий
Добавление ID3-тэга : Нет
Утилита сжатия : C:\Program Files\Exact Audio Copy\Flac\flac.exe
Дополнительные параметры : -8 -V -T "artist=%a" -T "title=%t" -T "album=%g" -T "date=%y" -T "tracknumber=%n" -T "genre=%m" -T "comment=EAC


TOC извлечённого CD

Трек | Старт | Длительность | Начальный сектор | Конечный сектор
---------------------------------------------------------------------
1 | 0:00.37 | 3:36.03 | 37 | 16239
2 | 3:36.40 | 4:02.10 | 16240 | 34399
3 | 7:38.50 | 3:55.02 | 34400 | 52026
4 | 11:33.52 | 3:59.70 | 52027 | 70021
5 | 15:33.47 | 5:23.28 | 70022 | 94274
6 | 20:57.00 | 4:16.25 | 94275 | 113499
7 | 25:13.25 | 3:30.62 | 113500 | 129311
8 | 28:44.12 | 3:52.50 | 129312 | 146761
9 | 32:36.62 | 4:23.25 | 146762 | 166511
10 | 37:00.12 | 4:17.25 | 166512 | 185811


Характеристики диапазона извлечения и сообщения об ошибках

Выбранный диапазон

Имя файла Y:\Музыка\Shy\1987 Excess All Areas\Shy - Excess All Areas [R32P-1109].wav

Пиковый уровень 89.7 %
Качество диапазона 100.0 %
CRC копии FBC05617
Копирование... OK

Ошибок не произошло


AccurateRip: сводка

Трек 1 нет в базе данных
Трек 2 нет в базе данных
Трек 3 нет в базе данных
Трек 4 нет в базе данных
Трек 5 нет в базе данных
Трек 6 нет в базе данных
Трек 7 нет в базе данных
Трек 8 нет в базе данных
Трек 9 нет в базе данных
Трек 10 нет в базе данных

Ни одного трека нет в базе AccurateRip

Конец отчёта


Состав:
Tony Mills: Vocals
Steve Harris: Guitar
Roy Stephen Davis: Bass
Alan Kelly: Drums
Paddy MaKenna: Keyboards

R32P-1109

_________________
Витасу до Даймонда как Алсу до Руссоса | При переразмещении - спрашивать разрешение!!


Last edited by iezuit on 23 Jul 2010, edited 2 times in total.

Top
 Profile  
 
 
PostPosted: 22 Jul 2010 
Хиппей (support team)
User avatar
Joined: 30 Jul 2007
Posts: 108198
Lоcаtion: Киев (Kyiv, UA)
Age: 45
Name: Andrey
Эх, красивая музыка, Дима, спасибо :thanx:

_________________


Top
 Profile E-mail  
 
 
PostPosted: 22 Jul 2010 
Зарегился вот...
Joined: 22 Jul 2010
Posts: 9
Lоcаtion: Украина
Name: Андрей
Спасибо, отличная группа! :)

P.S. Исправьте, пожалуйста, в описании каталожный номер. R32P-1107 - это, если не ошибаюсь, Bonfire '86.

P.P.S. Возможно, вы сочтете меня занудой (так и есть), но если каталожный номер R32P-1109, то и номер матрицы должен быть похож :)


Top
 Profile E-mail  
 
 
PostPosted: 05 Aug 2010 
ыыыы
User avatar
Joined: 17 May 2009
Posts: 952
Lоcаtion: Пушкино, МО
Age: 40
Name: Дмитрий
а в переиздании 96 г. есть 3 бонуса :meloman:
Alshamah
Да да да, обычная невнимательность

_________________
Витасу до Даймонда как Алсу до Руссоса | При переразмещении - спрашивать разрешение!!


Top
 Profile  
 
Display posts from previous:  Sort by  
Post new topic Reply to topic  [ 4 posts ] 

All times are UTC + 3 hours


Who is online

Users browsing this forum: No registered users and 2 guests


You cannot post new topics in this forum
You cannot reply to topics in this forum
You cannot edit your posts in this forum
You cannot delete your posts in this forum
You cannot post attachments in this forum

Search for:
Яндекс.Метрика
Powered by phpBB © 2000, 2002, 2005, 2007 phpBB Group