\m/ 80's metal \m/

Информационно-аналитический форум "80 см пыли" (In Search We Trust) "У нас никто никуда не спешит"
Me For You - http://me-4u.com
It is currently 17 Nov 2018

All times are UTC + 3 hours

Spoiler
Chat - temporary registration for foreign users (please leave your application here)







Post new topic Reply to topic  [ 16 posts ] 
Author Message
 
PostPosted: 10 Jul 2010 
ыыыы
User avatar
Joined: 17 May 2009
Posts: 952
Lоcаtion: Пушкино, МО
Age: 40
Name: Дмитрий
Image


Жанр: Thrash Metal
Происхождение исполнителя: Бразилия
Год издания: 1987
Год издания данного носителя: 1991
Страна-производитель носителя: Япония
Аудио кодек: FLAC
Тип рипа: image+.cue
Битрейт аудио: lossless
Продолжительность: 41:30
Рип: Собственный
Лейбл: CONGUMELO/F.E.M.S
Каталоговый номер: APCY-8039
Матрица: APCY-8039-A1F 11 V (JVC)

Треклист:
1. Intro 00:33
2. From the Past Comes the Storms 04:57
3. To the Wall 05:39
4. Escape to the Void 04:41
5. Inquisition Symphony 07:16
6. Screams Behind the Shadows 04:50
7. Septic Schizo 04:34
8. The Abyss 01:04
9. R.I.P. (Rest in Pain) 04:38
10. Troops of Doom 03:18

"Куй"
REM GENRE "Thrash Metal"
REM DATE 1987
REM DISCID 8309BA0A
REM COMMENT "ExactAudioCopy v0.99pb5"
CATALOG 0000000000000
PERFORMER "Sepultura"
TITLE "Schizophrenia [APCY-8039]"
FILE "Sepultura - Schizophrenia [APCY-8039].flac" WAVE
TRACK 01 AUDIO
TITLE "Intro"
PERFORMER "Sepultura"
ISRC 000000000000
INDEX 00 00:00:00
INDEX 01 00:00:37
TRACK 02 AUDIO
TITLE "From the Past Comes the Storms"
PERFORMER "Sepultura"
ISRC 000000000000
INDEX 01 00:33:15
TRACK 03 AUDIO
TITLE "To the Wall"
PERFORMER "Sepultura"
ISRC 000000000000
INDEX 00 05:29:06
INDEX 01 05:30:10
TRACK 04 AUDIO
TITLE "Escape to the Void"
PERFORMER "Sepultura"
ISRC 000000000000
INDEX 00 11:07:11
INDEX 01 11:09:05
TRACK 05 AUDIO
TITLE "Inquisition Symphony"
PERFORMER "Sepultura"
ISRC 000000000000
INDEX 00 15:48:61
INDEX 01 15:50:07
TRACK 06 AUDIO
TITLE "Screams Behind the Shadows"
PERFORMER "Sepultura"
ISRC 000000000000
INDEX 00 23:03:68
INDEX 01 23:05:72
TRACK 07 AUDIO
TITLE "Septic Schizo"
PERFORMER "Sepultura"
ISRC 000000000000
INDEX 00 27:54:68
INDEX 01 27:56:27
TRACK 08 AUDIO
TITLE "The Abyss"
PERFORMER "Sepultura"
ISRC 000000000000
INDEX 00 32:28:61
INDEX 01 32:30:27
TRACK 09 AUDIO
TITLE "R.I.P. (Rest In Pain)"
PERFORMER "Sepultura"
ISRC 000000000000
INDEX 00 33:32:46
INDEX 01 33:33:70
TRACK 10 AUDIO
TITLE "Troops of Doom"
PERFORMER "Sepultura"
ISRC 000000000000
INDEX 00 38:11:43
INDEX 01 38:12:15


"Лог"
Exact Audio Copy V0.99 prebeta 5 from 4. May 2009

Отчёт EAC об извлечении, выполненном 20. февраля 2010, 21:51

Sepultura / Schizophrenia [APCY-8039]

Дисковод: ASUS DRW-2014S1 Adapter: 0 ID: 0

Режим чтения : Достоверность
Использование точного потока : Да
Отключение кэша аудио : Да
Использование указателей C2 : Нет

Коррекция смещения при чтении : 6
Способность читать области Lead-in и Lead-out : Нет
Заполнение пропущенных сэмплов тишиной : Да
Удаление блоков с тишиной в начале и конце : Нет
При вычислениях CRC использовались нулевые сэмплы : Да
Интерфейс : Установленный внешний ASPI-интерфейс

Выходной формат : Пользовательский кодировщик
Выбранный битрейт : 128 kBit/s
Качество : Высокий
Добавление ID3-тэга : Нет
Утилита сжатия : C:\Program Files\Exact Audio Copy\Flac\flac.exe
Дополнительные параметры : -6 -V -T "artist=%a" -T "title=%t" -T "album=%g" -T "date=%y" -T "tracknumber=%n" -T "genre=%m" -T "comment=EAC 0.99beta5 / FLAC 1.1.0 q6" %s


TOC извлечённого CD

Трек | Старт | Длительность | Начальный сектор | Конечный сектор
---------------------------------------------------------------------
1 | 0:00.37 | 0:32.53 | 37 | 2489
2 | 0:33.15 | 4:56.70 | 2490 | 24759
3 | 5:30.10 | 5:38.70 | 24760 | 50179
4 | 11:09.05 | 4:41.02 | 50180 | 71256
5 | 15:50.07 | 7:15.65 | 71257 | 103946
6 | 23:05.72 | 4:50.30 | 103947 | 125726
7 | 27:56.27 | 4:34.00 | 125727 | 146276
8 | 32:30.27 | 1:03.43 | 146277 | 151044
9 | 33:33.70 | 4:38.20 | 151045 | 171914
10 | 38:12.15 | 3:18.22 | 171915 | 186786


Характеристики диапазона извлечения и сообщения об ошибках

Выбранный диапазон

Имя файла Y:\Музыка\Sepultura\1987 Schizophrenia\Sepultura - Schizophrenia [APCY-8039].wav

Пиковый уровень 97.7 %
Качество диапазона 99.9 %
CRC копии D541BA2F
Копирование... OK

Ошибок не произошло


AccurateRip: сводка

Трек 1 нет в базе данных
Трек 2 нет в базе данных
Трек 3 нет в базе данных
Трек 4 нет в базе данных
Трек 5 нет в базе данных
Трек 6 нет в базе данных
Трек 7 нет в базе данных
Трек 8 нет в базе данных
Трек 9 нет в базе данных
Трек 10 нет в базе данных

Ни одного трека нет в базе AccurateRip

Конец отчёта


Состав:
Max Cavalera: Vocals, guitar
Andreas Kisser: Lead guitar
Paulo Jr.: Bass
Igor Cavalera: Drums

APCY-8039

_________________
Витасу до Даймонда как Алсу до Руссоса | При переразмещении - спрашивать разрешение!!


Top
 Profile  
 
 
PostPosted: 10 Jul 2010 
Персональный статус
Joined: 14 May 2010
Posts: 236
Age: 37
Name: Денис
Спасибо!


Top
 Profile  
 
 
PostPosted: 10 Jul 2010 
ыыыы
User avatar
Joined: 17 May 2009
Posts: 952
Lоcаtion: Пушкино, МО
Age: 40
Name: Дмитрий
Что-то мне кажется, что в названии From the Past Comes the Storms закралась ошибка :umnik:
Либо надо From the Past Come the Storms либо From the Past Comes the Storm. Но тут the Storms это однозначно правильно, таки- правильное название должно быть From the Past Come the Storms :umnik: Или как?

_________________
Витасу до Даймонда как Алсу до Руссоса | При переразмещении - спрашивать разрешение!!


Top
 Profile  
 
 
PostPosted: 10 Jul 2010 
Персональный статус
Joined: 14 May 2010
Posts: 236
Age: 37
Name: Денис
Угу. Вопрос вот в чём.. "буря из прошлого" или "бури из прошлого"? :umnik:

На облогах, оффсайте, ma, wiki - storms, но на некоторых лиричных ресурсах - storm.

Думаю, пусть будут бури. Повесь голосовалку. :nunu:


Last edited by disabled on 10 Jul 2010, edited 2 times in total.

Top
 Profile  
 
 
PostPosted: 10 Jul 2010 
ыыыы
User avatar
Joined: 17 May 2009
Posts: 952
Lоcаtion: Пушкино, МО
Age: 40
Name: Дмитрий
я про грамматическую ошибку )) а буря или бури- это знают только авторы :nunu:

_________________
Витасу до Даймонда как Алсу до Руссоса | При переразмещении - спрашивать разрешение!!


Top
 Profile  
 
 
PostPosted: 10 Jul 2010 
Персональный статус
Joined: 14 May 2010
Posts: 236
Age: 37
Name: Денис
ах.. ты про comes-storms. :dash:

ну тогда, если storms - come, а если comes - storm.

одним словом - Бразилия. :true:


Top
 Profile  
 
 
PostPosted: 10 Jul 2010 
ыыыы
User avatar
Joined: 17 May 2009
Posts: 952
Lоcаtion: Пушкино, МО
Age: 40
Name: Дмитрий
89 год у меня второй японец- выкладывать не буду,буду искать первый. 93-й на рутракере есть. 91 сейчас перерипаю и выложу

_________________
Витасу до Даймонда как Алсу до Руссоса | При переразмещении - спрашивать разрешение!!


Top
 Profile  
 
 
PostPosted: 10 Jul 2010 
Персональный статус
Joined: 14 May 2010
Posts: 236
Age: 37
Name: Денис
у тебя на Arise сколько трэков?


Top
 Profile  
 
 
PostPosted: 10 Jul 2010 
ыыыы
User avatar
Joined: 17 May 2009
Posts: 952
Lоcаtion: Пушкино, МО
Age: 40
Name: Дмитрий
10 бонус- Оргазмотрон
Вот описание
http://www.worthpoint.com/worthopedia/s ... l-83923090

_________________
Витасу до Даймонда как Алсу до Руссоса | При переразмещении - спрашивать разрешение!!


Last edited by iezuit on 10 Jul 2010, edited 1 time in total.

Top
 Profile  
 
 
PostPosted: 10 Jul 2010 
Персональный статус
Joined: 14 May 2010
Posts: 236
Age: 37
Name: Денис
о! класс.
ливе или студио?


Top
 Profile  
 
 
PostPosted: 10 Jul 2010 
ыыыы
User avatar
Joined: 17 May 2009
Posts: 952
Lоcаtion: Пушкино, МО
Age: 40
Name: Дмитрий
студийный вроде

_________________
Витасу до Даймонда как Алсу до Руссоса | При переразмещении - спрашивать разрешение!!


Top
 Profile  
 
 
PostPosted: 10 Jul 2010 
Хиппей (support team)
User avatar
Joined: 30 Jul 2007
Posts: 108071
Lоcаtion: Киев (Kyiv, UA)
Age: 45
Name: Andrey
А не было его, кажись, в студийном варианте :oops:

_________________


Top
 Profile E-mail  
 
 
PostPosted: 10 Jul 2010 
ыыыы
User avatar
Joined: 17 May 2009
Posts: 952
Lоcаtion: Пушкино, МО
Age: 40
Name: Дмитрий
смотря у кого не было :nea:

_________________
Витасу до Даймонда как Алсу до Руссоса | При переразмещении - спрашивать разрешение!!


Top
 Profile  
 
 
PostPosted: 10 Jul 2010 
Хиппей (support team)
User avatar
Joined: 30 Jul 2007
Posts: 108071
Lоcаtion: Киев (Kyiv, UA)
Age: 45
Name: Andrey
У меня :oops:

_________________


Top
 Profile E-mail  
 
 
PostPosted: 11 Jul 2010 
труъ антисионист
User avatar
Joined: 01 Aug 2007
Posts: 4541
Lоcаtion: Откуда и большинство из нас
Age: 37
Name: Дядя Вова
Благодарствую :losik:

_________________
Image
Image


Top
 Profile  
 
 
PostPosted: 12 Jul 2010 
Motörheadache
User avatar
Joined: 04 Feb 2010
Posts: 1294
Lоcаtion: Впереди- горы,позади-степи
Age: 45
Name: Александр
Альбом,который с первой прослушки произвёл отличное впечатление лет 20-ть назад...
Спасибище ! :true:

_________________
Eine Nation, Ein Land, Eine Schnaps!

Наш священный долг:защищать Родину,и соблюдать правила личной гигиены....!


Top
 Profile E-mail  
 
Display posts from previous:  Sort by  
Post new topic Reply to topic  [ 16 posts ] 

All times are UTC + 3 hours


Who is online

Users browsing this forum: No registered users and 3 guests


You cannot post new topics in this forum
You cannot reply to topics in this forum
You cannot edit your posts in this forum
You cannot delete your posts in this forum
You cannot post attachments in this forum

Search for:
Яндекс.Метрика
Powered by phpBB © 2000, 2002, 2005, 2007 phpBB Group