\m/ 80's metal \m/

Информационно-аналитический форум "80 см пыли" (In Search We Trust) "У нас никто никуда не спешит"
Железнодорожная биржа - RailAgent
It is currently 23 Jul 2018

All times are UTC + 3 hours

Spoiler
Chat - temporary registration for foreign users (please leave your application here)







Post new topic Reply to topic  [ 7 posts ] 
Author Message
 
PostPosted: 09 Jul 2010 
ыыыы
User avatar
Joined: 17 May 2009
Posts: 952
Lоcаtion: Пушкино, МО
Age: 39
Name: Дмитрий
Image


Жанр: Thrash Metal
Происхождение исполнителя: Бразилия
Год издания: 1994
Год издания данного носителя: 1994
Страна-производитель носителя: Япония
Аудио кодек: FLAC
Тип рипа: image+.cue
Битрейт аудио: lossless
Продолжительность: 13:18
Рип: Собственный
Лейбл: ROADRUNNER/F.E.M.S.
Каталоговый номер: APCY-8197
Матрица: APCY-8197 PE098A (DENON)

Треклист:
1. Slave New World 02:56
2. Crucificados Pelo Sistema 01:04
3. Drug Me 01:53
4. Orgasmatron (live) 04:13
5. Inhuman Nature (Bonus) 03:11

"Куй"
REM GENRE Metal
REM DATE 1994
REM DISCID 34031E05
REM COMMENT "ExactAudioCopy v0.99pb5"
CATALOG 4988015052589
PERFORMER "Sepultura"
TITLE "Slave New World [APCY-8197]"
FILE "Sepultura - Slave New World [APCY-8197].flac" WAVE
TRACK 01 AUDIO
TITLE "Slave New World"
PERFORMER "Sepultura"
INDEX 01 00:00:00
TRACK 02 AUDIO
TITLE "Crucificados Pelo Sistema"
PERFORMER "Sepultura"
INDEX 01 02:55:50
TRACK 03 AUDIO
TITLE "Drug Me"
PERFORMER "Sepultura"
INDEX 01 04:00:02
TRACK 04 AUDIO
TITLE "Orgasmatron (Live)"
PERFORMER "Sepultura"
INDEX 01 05:53:22
TRACK 05 AUDIO
TITLE "Inhuman Nature (Bonus)"
PERFORMER "Sepultura"
INDEX 01 10:06:52


"Лог"
Exact Audio Copy V0.99 prebeta 5 from 4. May 2009

Отчёт EAC об извлечении, выполненном 10. марта 2010, 22:50

Sepultura / Slave New World [APCY-8197]

Дисковод: MATSHITADVD-RAM UJ-850S Adapter: 0 ID: 0

Режим чтения : Достоверность
Использование точного потока : Да
Отключение кэша аудио : Да
Использование указателей C2 : Нет

Коррекция смещения при чтении : 102
Способность читать области Lead-in и Lead-out : Нет
Заполнение пропущенных сэмплов тишиной : Да
Удаление блоков с тишиной в начале и конце : Нет
При вычислениях CRC использовались нулевые сэмплы : Нет
Интерфейс : Установленный внешний ASPI-интерфейс

Выходной формат : Пользовательский кодировщик
Выбранный битрейт : 128 kBit/s
Качество : Высокий
Добавление ID3-тэга : Нет
Утилита сжатия : C:\Program Files\Exact Audio Copy\Flac\flac.exe
Дополнительные параметры : -6 -V -T "artist=%a" -T "title=%t" -T "album=%g" -T "date=%y" -T "tracknumber=%n" -T "genre=%m" -T "comment=EAC 0.9beta4 / FLAC 1.1.0 q6" %s


TOC извлечённого CD

Трек | Старт | Длительность | Начальный сектор | Конечный сектор
---------------------------------------------------------------------
1 | 0:00.00 | 2:55.50 | 0 | 13174
2 | 2:55.50 | 1:04.27 | 13175 | 18001
3 | 4:00.02 | 1:53.20 | 18002 | 26496
4 | 5:53.22 | 4:13.30 | 26497 | 45501
5 | 10:06.52 | 3:11.23 | 45502 | 59849


Характеристики диапазона извлечения и сообщения об ошибках

Выбранный диапазон

Имя файла Z:\Музыка\Sepultura\1994 Slave New World\Sepultura - Slave New World [APCY-8197].wav

Пиковый уровень 99.9 %
Качество диапазона 100.0 %
CRC копии 2A684322
Копирование... OK

Ошибок не произошло


AccurateRip: сводка

Трек 1 нет в базе данных
Трек 2 нет в базе данных
Трек 3 нет в базе данных
Трек 4 нет в базе данных
Трек 5 нет в базе данных

Ни одного трека нет в базе AccurateRip

Конец отчёта


Состав:
Max Cavalera: Vocals, guitar
Andreas Kisser: Guitar
Paulo Jr.: Bass
Igor Cavalera: Drums

APCY-8197

_________________
Витасу до Даймонда как Алсу до Руссоса | При переразмещении - спрашивать разрешение!!


Top
 Profile  
 
 
PostPosted: 09 Jul 2010 
труъ антисионист
User avatar
Joined: 01 Aug 2007
Posts: 4541
Lоcаtion: Откуда и большинство из нас
Age: 37
Name: Дядя Вова
Димка, спасибо, не знал, что ты и миники скупаешь! :losik:

_________________
Image
Image


Top
 Profile  
 
 
PostPosted: 10 Jul 2010 
ыыыы
User avatar
Joined: 17 May 2009
Posts: 952
Lоcаtion: Пушкино, МО
Age: 39
Name: Дмитрий
Габинович всех скупит и пгодаст и снова купит! :crazy: :nunu:

_________________
Витасу до Даймонда как Алсу до Руссоса | При переразмещении - спрашивать разрешение!!


Last edited by iezuit on 12 Jul 2010, edited 1 time in total.

Top
 Profile  
 
 
PostPosted: 12 Jul 2010 
Хиппей (support team)
User avatar
Joined: 30 Jul 2007
Posts: 105211
Lоcаtion: Киев (Kyiv, UA)
Age: 45
Name: Andrey
תודה :true:

_________________


Top
 Profile E-mail  
 
 
PostPosted: 12 Jul 2010 
ыыыы
User avatar
Joined: 17 May 2009
Posts: 952
Lоcаtion: Пушкино, МО
Age: 39
Name: Дмитрий
Scatterbrain
не не не!! я не из таковских! :rabo: тьфу блин!

_________________
Витасу до Даймонда как Алсу до Руссоса | При переразмещении - спрашивать разрешение!!


Top
 Profile  
 
 
PostPosted: 12 Jul 2010 
Хиппей (support team)
User avatar
Joined: 30 Jul 2007
Posts: 105211
Lоcаtion: Киев (Kyiv, UA)
Age: 45
Name: Andrey
Да уже поздняк отмазываца :crazy: Все мы здесь свои - купил-зарипал-стырил-скачал-отрипал-записал-продал-купил-зарипал-скачал-отрипал-записал-продал-отрипал-купил-положил на полку-пусть накопляется-глаз радует-а послушаем позже-... :dash:

_________________


Top
 Profile E-mail  
 
 
PostPosted: 12 Jul 2010 
дядя Миша
User avatar
Joined: 17 Oct 2008
Posts: 3035
Lоcаtion: USSR
Age: 55
Name: Khy
возьму. Спасибо , Дим , нафиг нам сканер :true:


Top
 Profile  
 
Display posts from previous:  Sort by  
Post new topic Reply to topic  [ 7 posts ] 

All times are UTC + 3 hours


Who is online

Users browsing this forum: No registered users and 1 guest


You cannot post new topics in this forum
You cannot reply to topics in this forum
You cannot edit your posts in this forum
You cannot delete your posts in this forum
You cannot post attachments in this forum

Search for:
Яндекс.Метрика
cron
Powered by phpBB © 2000, 2002, 2005, 2007 phpBB Group