\m/ 80's metal \m/

Информационно-аналитический форум "80 см пыли" (In Search We Trust) "У нас никто никуда не спешит"
Железнодорожная биржа - RailAgent
It is currently 23 Jul 2018

All times are UTC + 3 hours

Spoiler
Chat - temporary registration for foreign users (please leave your application here)







Post new topic Reply to topic  [ 14 posts ] 
Author Message
 
PostPosted: 06 Jul 2010 
ыыыы
User avatar
Joined: 17 May 2009
Posts: 952
Lоcаtion: Пушкино, МО
Age: 39
Name: Дмитрий
Image


Жанр: Heavy Metal
Происхождение исполнителя: США
Год издания: 1989
Год издания данного носителя: 1990
Страна-производитель носителя: Япония
Аудио кодек: FLAC
Тип рипа: image+.cue
Битрейт аудио: lossless
Продолжительность: 52:25
Рип: Собственный
Лейбл: ATLANTIC/MMG
Каталоговый номер: AMCY-27
Матрица: AMCY-27 1M TO (TOSHIBA)

Треклист:
1. Of Rage and War 04:47
2. Gutter Ballet 06:20
3. Temptation Revelation 02:57
4. When the Crowds Are Gone 05:46
5. Silk and Steel 02:59
6. She's in Love 03:52
7. Hounds 06:29
8. The Unholy 04:37
9. Mentally Yours 05:20
10. Summer's Rain 04:33
11. Thorazine Shuffle 04:44

"Куй"
REM GENRE "Heavy Metal"
REM DATE 1989
REM DISCID B00C490B
REM COMMENT "ExactAudioCopy v0.99pb5"
PERFORMER "Savatage"
TITLE "Gutter Ballet [AMCY-27]"
FILE "Savatage - Gutter Ballet [AMCY-27].flac" WAVE
TRACK 01 AUDIO
TITLE "Of Rage And War"
PERFORMER "Savatage"
INDEX 01 00:00:00
TRACK 02 AUDIO
TITLE "Gutter Ballet"
PERFORMER "Savatage"
INDEX 01 04:47:25
TRACK 03 AUDIO
TITLE "Temptation Revelation"
PERFORMER "Savatage"
INDEX 01 11:07:55
TRACK 04 AUDIO
TITLE "When The Crowds Are Gone"
PERFORMER "Savatage"
INDEX 01 14:04:27
TRACK 05 AUDIO
TITLE "Silk And Steel"
PERFORMER "Savatage"
INDEX 01 19:50:42
TRACK 06 AUDIO
TITLE "She's In Love"
PERFORMER "Savatage"
INDEX 00 22:47:40
INDEX 01 22:49:12
TRACK 07 AUDIO
TITLE "Hounds"
PERFORMER "Savatage"
INDEX 01 26:41:07
TRACK 08 AUDIO
TITLE "The Unholy"
PERFORMER "Savatage"
INDEX 01 33:09:62
TRACK 09 AUDIO
TITLE "Mentally Yours"
PERFORMER "Savatage"
INDEX 01 37:47:12
TRACK 10 AUDIO
TITLE "Summer's Rain"
PERFORMER "Savatage"
INDEX 01 43:07:12
TRACK 11 AUDIO
TITLE "Thorazine Shuffle"
PERFORMER "Savatage"
INDEX 01 47:40:40


"Лог"
Exact Audio Copy V0.99 prebeta 5 from 4. May 2009

Отчёт EAC об извлечении, выполненном 5. июля 2010, 23:22

Savatage / Gutter Ballet [AMCY-27]

Дисковод: MATSHITADVD-RAM UJ-850S Adapter: 0 ID: 0

Режим чтения : Достоверность
Использование точного потока : Да
Отключение кэша аудио : Да
Использование указателей C2 : Нет

Коррекция смещения при чтении : 102
Способность читать области Lead-in и Lead-out : Нет
Заполнение пропущенных сэмплов тишиной : Да
Удаление блоков с тишиной в начале и конце : Нет
При вычислениях CRC использовались нулевые сэмплы : Да
Интерфейс : Установленный внешний ASPI-интерфейс

Выходной формат : Пользовательский кодировщик
Выбранный битрейт : 128 kBit/s
Качество : Высокий
Добавление ID3-тэга : Нет
Утилита сжатия : C:\Program Files\Exact Audio Copy\Flac\flac.exe
Дополнительные параметры : -6 -V -T "artist=%a" -T "title=%t" -T "album=%g" -T "date=%y" -T "tracknumber=%n" -T "genre=%m" -T "comment=EAC 0.99beta5 / FLAC 1.1.0 q6" %s


TOC извлечённого CD

Трек | Старт | Длительность | Начальный сектор | Конечный сектор
---------------------------------------------------------------------
1 | 0:00.00 | 4:47.25 | 0 | 21549
2 | 4:47.25 | 6:20.30 | 21550 | 50079
3 | 11:07.55 | 2:56.47 | 50080 | 63326
4 | 14:04.27 | 5:46.15 | 63327 | 89291
5 | 19:50.42 | 2:58.45 | 89292 | 102686
6 | 22:49.12 | 3:51.70 | 102687 | 120081
7 | 26:41.07 | 6:28.55 | 120082 | 149236
8 | 33:09.62 | 4:37.25 | 149237 | 170036
9 | 37:47.12 | 5:20.00 | 170037 | 194036
10 | 43:07.12 | 4:33.28 | 194037 | 214539
11 | 47:40.40 | 4:44.62 | 214540 | 235901


Характеристики диапазона извлечения и сообщения об ошибках

Выбранный диапазон

Имя файла Y:\Музыка\Savatage\1989 Gutter Ballet\Savatage - Gutter Ballet [AMCY-27].wav

Пиковый уровень 95.4 %
Качество диапазона 100.0 %
CRC копии 47CDD79B
Копирование... OK

Ошибок не произошло


AccurateRip: сводка

Трек 1 точное извлечение (доверие 2) [6E3F99C9]
Трек 2 точное извлечение (доверие 2) [ADC7CA7A]
Трек 3 точное извлечение (доверие 1) [C5865CD9]
Трек 4 точное извлечение (доверие 1) [4137AC6E]
Трек 5 точное извлечение (доверие 1) [AE407294]
Трек 6 точное извлечение (доверие 2) [4617630C]
Трек 7 точное извлечение (доверие 2) [3B754FC6]
Трек 8 точное извлечение (доверие 1) [2F3438CC]
Трек 9 точное извлечение (доверие 1) [615D443A]
Трек 10 точное извлечение (доверие 1) [0890691E]
Трек 11 точное извлечение (доверие 1) [9DAFD5E8]

Все треки извлечены точно

Конец отчёта


Состав:
Jon Oliva: Vocals & Piano
Criss Oliva: Guitars
Johnny Lee Middleton: Bass
Steve Wacholz: Cymbals & Drums
Bob Kinkel: Additional keyboards

AMCY-27

_________________
Витасу до Даймонда как Алсу до Руссоса | При переразмещении - спрашивать разрешение!!


Top
 Profile  
 
 
PostPosted: 06 Jul 2010 
Пионэръ
User avatar
Joined: 02 Jul 2010
Posts: 45
Lоcаtion: Сочи
Age: 46
Name: Борис
Шикарный :los:
Спасибо Большое :gra: :gra:


Top
 Profile E-mail  
 
 
PostPosted: 06 Jul 2010 
Прокъмитолист
User avatar
Joined: 12 Aug 2007
Posts: 6423
Lоcаtion: Санктъ-Петербуркъ
Age: 50
Name: Олекъ
обожаю этот альбом. как я уже где-то отписывался, для меня это вершина творчества Savatage. качать не буду, но не мог не отметиться :true:

_________________
прокъметол - это музыко, от которово есть прок (ы)


Top
 Profile  
 
 
PostPosted: 06 Jul 2010 
Хиппей (support team)
User avatar
Joined: 30 Jul 2007
Posts: 105221
Lоcаtion: Киев (Kyiv, UA)
Age: 45
Name: Andrey
:thanx: :thanx: :thanx:

_________________


Top
 Profile E-mail  
 
 
PostPosted: 06 Jul 2010 
Motörheadache
User avatar
Joined: 04 Feb 2010
Posts: 1294
Lоcаtion: Впереди- горы,позади-степи
Age: 45
Name: Александр
После Ballet -а шонто разонравился мне Севетейж...хоть ты тресни... :( :umnik: :vic:

_________________
Eine Nation, Ein Land, Eine Schnaps!

Наш священный долг:защищать Родину,и соблюдать правила личной гигиены....!


Top
 Profile E-mail  
 
 
PostPosted: 06 Jul 2010 
А может смените мне статус?..
User avatar
Joined: 24 Dec 2008
Posts: 608
Age: 44
Name: Дмитрий
Спасибо, обновлю.


Top
 Profile  
 
 
PostPosted: 06 Jul 2010 
Анатолий
User avatar
Joined: 18 Oct 2008
Posts: 3066
Lоcаtion: Армавир
Age: 41
Name: Анатолий
Ох ё... японец с бонусом! :true:

Вельми понеже за эту ВЕЩЬ! :thanx:

Альбом шикарный. Более поздний Savatage тоже с натугой воспринимаю... хотя в подсознании догадываюсь, что и поздние альбомы великолепны... но... :oops:


Top
 Profile E-mail  
 
 
PostPosted: 06 Jul 2010 
Power Metal Maniac
User avatar
Joined: 09 Aug 2008
Posts: 6197
Lоcаtion: Москва
Age: 40
Name: Егор
с этого альбома и начался настоящий Саватаж! :true:

_________________
Long Live Metal!


Top
 Profile  
 
 
PostPosted: 07 Jul 2010 
Анатолий
User avatar
Joined: 18 Oct 2008
Posts: 3066
Lоcаtion: Армавир
Age: 41
Name: Анатолий
EG Power wrote:
с этого альбома и начался настоящий Саватаж!


Скорее начался совсем другой Savatage. А, то получается, что до этого альбома был какой-то фальшивый Savatage, а это далеко не так.


Top
 Profile E-mail  
 
 
PostPosted: 07 Jul 2010 
Power Metal Maniac
User avatar
Joined: 09 Aug 2008
Posts: 6197
Lоcаtion: Москва
Age: 40
Name: Егор
Эх, Музыку они начали играть, настоящую, цепляющую. Впрочем, тут больше ортодокосов и творчество Сава я рассматриваю как исключение из правил.

_________________
Long Live Metal!


Top
 Profile  
 
 
PostPosted: 07 Jul 2010 
metallpaparazzy
User avatar
Joined: 20 Dec 2009
Posts: 674
Lоcаtion: Днепропетровск
Age: 43
Name: Геннадий
EG Power wrote:
с этого альбома и начался настоящий Саватаж!

поддерживаю :true: хотя, Ночой повар (ну 85 который) очень хорош!
на вкус и цвет, как говориццо... :oops:


Top
 Profile E-mail  
 
 
PostPosted: 07 Jul 2010 
Персональный статус
Joined: 15 Jul 2008
Posts: 340
Age: 10
Name: Алексей
Там на диске есть лого jasrac?


Top
 Profile  
 
 
PostPosted: 07 Jul 2010 
ыыыы
User avatar
Joined: 17 May 2009
Posts: 952
Lоcаtion: Пушкино, МО
Age: 39
Name: Дмитрий
debo6
Есть

_________________
Витасу до Даймонда как Алсу до Руссоса | При переразмещении - спрашивать разрешение!!


Top
 Profile  
 
 
PostPosted: 07 Jul 2010 
Пионэръ
Joined: 08 Mar 2010
Posts: 36
Lоcаtion: Россия
Age: 38
Name: Иван
Благодарю!


Top
 Profile E-mail  
 
Display posts from previous:  Sort by  
Post new topic Reply to topic  [ 14 posts ] 

All times are UTC + 3 hours


Who is online

Users browsing this forum: No registered users and 1 guest


You cannot post new topics in this forum
You cannot reply to topics in this forum
You cannot edit your posts in this forum
You cannot delete your posts in this forum
You cannot post attachments in this forum

Search for:
Яндекс.Метрика
Powered by phpBB © 2000, 2002, 2005, 2007 phpBB Group