\m/ 80's metal \m/

Информационно-аналитический форум "80 см пыли" (In Search We Trust) "У нас никто никуда не спешит"
Железнодорожная биржа - RailAgent
It is currently 21 Jul 2018

All times are UTC + 3 hours

Spoiler
Chat - temporary registration for foreign users (please leave your application here)







Post new topic Reply to topic  [ 2 posts ] 
Author Message
 
PostPosted: 22 Jun 2010 
Персональный статус
User avatar
Joined: 29 Sep 2009
Posts: 271
Lоcаtion: Надым
Age: 39
Name: Виталий
STARZ - STARZ 1976

Image

Жанр: Hard Rock
Происхождение исполнителя: США
Год издания: 1976
Год издания данного носителя: 2005
Страна-производитель носителя: США
Аудио кодек: FLAC
Тип рипа: image+.cue (log, covers)
Битрейт аудио: lossless
Продолжительность: 53:57

Треклист:
01 Detroit Girls
02 Live Wire
03 Tear It Down
04 Boys In Action
05 (She's Just A) Fallen Angel
06 Monkey Business
07 Night Crawler
08 Over And Over
09 Pull The Plug
10 Now I Can
11 Sweet Jeremiah (demo bonus track)
12 Fallen Angel (demo bonus track)
13 Detroit Girls (demo bonus track)
14 Live Wire (demo bonus track)

"cue"
REM GENRE "Hard Rock"
REM DATE 1975
REM DISCID A90CA50E
REM COMMENT "ExactAudioCopy v0.99pb5"
PERFORMER "Starz"
TITLE "Starz"
FILE "Starz - Starz.flac" WAVE
TRACK 01 AUDIO
TITLE "Detroit Girls"
PERFORMER "Starz"
INDEX 01 00:00:00
TRACK 02 AUDIO
TITLE "Live Wire"
PERFORMER "Starz"
INDEX 01 04:01:26
TRACK 03 AUDIO
TITLE "Tear It Down"
PERFORMER "Starz"
INDEX 01 07:21:53
TRACK 04 AUDIO
TITLE "Boys In Action"
PERFORMER "Starz"
INDEX 01 10:31:67
TRACK 05 AUDIO
TITLE "(She's Just A) Fallen Angel"
PERFORMER "Starz"
INDEX 01 16:10:57
TRACK 06 AUDIO
TITLE "Monkey Business"
PERFORMER "Starz"
INDEX 01 19:43:43
TRACK 07 AUDIO
TITLE "Night Crawler"
PERFORMER "Starz"
INDEX 01 22:33:43
TRACK 08 AUDIO
TITLE "Over And Over"
PERFORMER "Starz"
INDEX 01 27:02:22
TRACK 09 AUDIO
TITLE "Pull The Plug"
PERFORMER "Starz"
INDEX 01 30:18:70
TRACK 10 AUDIO
TITLE "How I Can"
PERFORMER "Starz"
INDEX 01 35:01:74
TRACK 11 AUDIO
TITLE "Sweet Jeremiah (demo bonus track)"
PERFORMER "Starz"
INDEX 01 39:15:19
TRACK 12 AUDIO
TITLE "Fallen Angel (demo bonus track)"
PERFORMER "Starz"
INDEX 01 42:31:05
TRACK 13 AUDIO
TITLE "Detroit Girls (demo bonus track)"
PERFORMER "Starz"
INDEX 01 45:56:46
TRACK 14 AUDIO
TITLE "Live Wire (demo bonus track)"
PERFORMER "Starz"
INDEX 01 49:59:33


"log"
Exact Audio Copy V0.99 prebeta 5 from 4. May 2009

EAC extraction logfile from 22. June 2010, 3:33

Starz / Starz

Used drive : Optiarc DVD RW AD-5590A Adapter: 3 ID: 0

Read mode : Secure
Utilize accurate stream : Yes
Defeat audio cache : Yes
Make use of C2 pointers : No

Read offset correction : 48
Overread into Lead-In and Lead-Out : No
Fill up missing offset samples with silence : Yes
Delete leading and trailing silent blocks : No
Null samples used in CRC calculations : Yes
Used interface : Installed external ASPI interface

Used output format : User Defined Encoder
Selected bitrate : 320 kBit/s
Quality : High
Add ID3 tag : No
Command line compressor : C:\Program Files\Exact Audio Copy\Flac\flac.exe
Additional command line options : -8 -V %s


TOC of the extracted CD

Track | Start | Length | Start sector | End sector
---------------------------------------------------------
1 | 0:00.00 | 4:01.26 | 0 | 18100
2 | 4:01.26 | 3:20.27 | 18101 | 33127
3 | 7:21.53 | 3:10.14 | 33128 | 47391
4 | 10:31.67 | 5:38.65 | 47392 | 72806
5 | 16:10.57 | 3:32.61 | 72807 | 88767
6 | 19:43.43 | 2:50.00 | 88768 | 101517
7 | 22:33.43 | 4:28.54 | 101518 | 121671
8 | 27:02.22 | 3:16.48 | 121672 | 136419
9 | 30:18.70 | 4:43.04 | 136420 | 157648
10 | 35:01.74 | 4:13.20 | 157649 | 176643
11 | 39:15.19 | 3:15.61 | 176644 | 191329
12 | 42:31.05 | 3:25.41 | 191330 | 206745
13 | 45:56.46 | 4:02.62 | 206746 | 224957
14 | 49:59.33 | 3:57.74 | 224958 | 242806


Range status and errors

Selected range

Filename C:\Documents and Settings\Admin\Мои документы\Моя музыка\Starz - Starz.wav

Peak level 99.7 %
Range quality 100.0 %
Copy CRC DE5D2B7A
Copy OK

No errors occurred

End of status report


Megaupload


Top
 Profile E-mail  
 
 
PostPosted: 22 Jun 2010 
Почётный металлург
User avatar
Joined: 15 Sep 2007
Posts: 4357
Lоcаtion: Хабаровск
Age: 58
Name: чуть выше
Всё здорово! Огромное спасибо!! :true: :thanx: :thanx: :thanx:

_________________
Коль будешь людей ты ослами честить,
тебе человеком меж них не прослыть!
(Саади, персидский поэт, 13в.)


Top
 Profile  
 
Display posts from previous:  Sort by  
Post new topic Reply to topic  [ 2 posts ] 

All times are UTC + 3 hours


Who is online

Users browsing this forum: No registered users and 3 guests


You cannot post new topics in this forum
You cannot reply to topics in this forum
You cannot edit your posts in this forum
You cannot delete your posts in this forum
You cannot post attachments in this forum

Search for:
Яндекс.Метрика
Powered by phpBB © 2000, 2002, 2005, 2007 phpBB Group