\m/ 80's metal \m/

Информационно-аналитический форум "80 см пыли" (In Search We Trust) "У нас никто никуда не спешит"
Me For You - http://me-4u.com
It is currently 20 Sep 2018

All times are UTC + 3 hours

Spoiler
Chat - temporary registration for foreign users (please leave your application here)







Post new topic Reply to topic  [ 2 posts ] 
Author Message
 
PostPosted: 21 Jun 2010 
Персональный статус
User avatar
Joined: 29 Sep 2009
Posts: 271
Lоcаtion: Надым
Age: 40
Name: Виталий
STARZ - COLISEUM ROCK 1978

Image

Жанр: Hard Rock
Происхождение исполнителя: США
Год издания: 1978
Год издания данного носителя: 2005
Страна-производитель носителя: США
Аудио кодек: FLAC
Тип рипа: image+.cue (log, covers)
Битрейт аудио: lossless
Продолжительность: 47:41

Треклист:
01 So Young, So Bad
02 Take Me
03 No Regrets
04 My Sweet Child
05 Don't Stop Now
06 Outfit
07 Last Night I Wrote A Letter
08 Coliseum Rock
09 It's A Riot
10 Where I Will It End
11 Vidi O.D. (bonus track from Requiem 1990)
12 You Called His Name (bonus track from Requiem 1990)

"cue"
REM GENRE "Hard Rock"
REM DATE 1978
REM DISCID AA0B2D0C
REM COMMENT "ExactAudioCopy v0.99pb5"
PERFORMER "Starz"
TITLE "Coliseum Rock"
FILE "Starz - Coliseum Rock.flac" WAVE
TRACK 01 AUDIO
TITLE "So Young, So Bad"
PERFORMER "Starz"
INDEX 01 00:00:00
TRACK 02 AUDIO
TITLE "Take Me"
PERFORMER "Starz"
INDEX 01 03:26:39
TRACK 03 AUDIO
TITLE "No Regrets"
PERFORMER "Starz"
INDEX 01 07:24:69
TRACK 04 AUDIO
TITLE "My Sweet Child"
PERFORMER "Starz"
INDEX 01 12:18:44
TRACK 05 AUDIO
TITLE "Don't Stop Now"
PERFORMER "Starz"
INDEX 01 16:16:37
TRACK 06 AUDIO
TITLE "Outfit"
PERFORMER "Starz"
INDEX 01 19:55:51
TRACK 07 AUDIO
TITLE "Last Night I Wrote A Letter"
PERFORMER "Starz"
INDEX 01 23:14:50
TRACK 08 AUDIO
TITLE "Coliseum Rock"
PERFORMER "Starz"
INDEX 01 28:14:15
TRACK 09 AUDIO
TITLE "It's A Riot"
PERFORMER "Starz"
INDEX 01 31:43:50
TRACK 10 AUDIO
TITLE "Where Will It End"
PERFORMER "Starz"
INDEX 01 35:19:33
TRACK 11 AUDIO
TITLE "Vidi O.D. (bonus track from Requiem, 1990)"
PERFORMER "Starz"
INDEX 01 39:46:48
TRACK 12 AUDIO
TITLE "You Called His Name (bonus track from Requiem, 1990)"
PERFORMER "Starz"
INDEX 01 43:18:30


"log"
Exact Audio Copy V0.99 prebeta 5 from 4. May 2009

EAC extraction logfile from 21. June 2010, 13:53

Starz / Coliseum Rock

Used drive : Optiarc DVD RW AD-5590A Adapter: 3 ID: 0

Read mode : Secure
Utilize accurate stream : Yes
Defeat audio cache : Yes
Make use of C2 pointers : No

Read offset correction : 48
Overread into Lead-In and Lead-Out : No
Fill up missing offset samples with silence : Yes
Delete leading and trailing silent blocks : No
Null samples used in CRC calculations : Yes
Used interface : Installed external ASPI interface

Used output format : User Defined Encoder
Selected bitrate : 1024 kBit/s
Quality : High
Add ID3 tag : No
Command line compressor : C:\Program Files\Exact Audio Copy\Flac\flac.exe
Additional command line options : -8 -V %s


TOC of the extracted CD

Track | Start | Length | Start sector | End sector
---------------------------------------------------------
1 | 0:00.00 | 3:26.39 | 0 | 15488
2 | 3:26.39 | 3:58.30 | 15489 | 33368
3 | 7:24.69 | 4:53.50 | 33369 | 55393
4 | 12:18.44 | 3:57.68 | 55394 | 73236
5 | 16:16.37 | 3:39.14 | 73237 | 89675
6 | 19:55.51 | 3:18.74 | 89676 | 104599
7 | 23:14.50 | 4:59.40 | 104600 | 127064
8 | 28:14.15 | 3:29.35 | 127065 | 142774
9 | 31:43.50 | 3:35.58 | 142775 | 158957
10 | 35:19.33 | 4:27.15 | 158958 | 178997
11 | 39:46.48 | 3:31.57 | 178998 | 194879
12 | 43:18.30 | 4:22.53 | 194880 | 214582


Range status and errors

Selected range

Filename C:\Documents and Settings\Admin\Мои документы\Моя музыка\Starz - Coliseum Rock.wav

Peak level 99.7 %
Range quality 100.0 %
Copy CRC DB6B424B
Copy OK

No errors occurred

End of status report


Megaupload


Top
 Profile E-mail  
 
 
PostPosted: 21 Jun 2010 
Почётный металлург
User avatar
Joined: 15 Sep 2007
Posts: 4357
Lоcаtion: Хабаровск
Age: 58
Name: чуть выше
Спасибо! Забираю! :true: :thanx:

_________________
Коль будешь людей ты ослами честить,
тебе человеком меж них не прослыть!
(Саади, персидский поэт, 13в.)


Top
 Profile  
 
Display posts from previous:  Sort by  
Post new topic Reply to topic  [ 2 posts ] 

All times are UTC + 3 hours


Who is online

Users browsing this forum: No registered users and 3 guests


You cannot post new topics in this forum
You cannot reply to topics in this forum
You cannot edit your posts in this forum
You cannot delete your posts in this forum
You cannot post attachments in this forum

Search for:
Яндекс.Метрика
Powered by phpBB © 2000, 2002, 2005, 2007 phpBB Group