\m/ 80's metal \m/

Информационно-аналитический форум "80 см пыли" (In Search We Trust) "У нас никто никуда не спешит"
Me For You - http://me-4u.com
It is currently 22 Nov 2018

All times are UTC + 3 hours

Spoiler
Chat - temporary registration for foreign users (please leave your application here)







Post new topic Reply to topic  [ 11 posts ] 
Author Message
 
PostPosted: 11 Jun 2010 
ыыыы
User avatar
Joined: 17 May 2009
Posts: 952
Lоcаtion: Пушкино, МО
Age: 40
Name: Дмитрий
Image


Жанр: Hard Rock/Christian Rock
Происхождение исполнителя: США
Год издания: 1986
Год издания данного носителя: 1986
Страна-производитель носителя: Япония
Аудио кодек: FLAC
Тип рипа: image+.cue
Битрейт аудио: lossless
Продолжительность: 40:59
Рип: Собственный
Лейбл: ENIGMA/CBS-SONY
Каталоговый номер: 32DP-579
Матрица: 32DP-579 11A1 +++++ (SONY)

Треклист:
1. Abyss (To Hell with the Devil) 01:21
2. To Hell with the Devil 04:08
3. Calling on You 04:00
4. Free 03:44
5. Honestly 04:10
6. The Way 03:40
7. Sing-Along Song 04:22
8. Holding On 04:16
9. Rockin' the World 03:30
10. All of Me 03:11
11. More Than a Man 04:37

"Куй"
REM GENRE "Christian Rock"
REM DATE 1986
REM DISCID 92099B0B
REM COMMENT "ExactAudioCopy v0.99pb5"
PERFORMER "Stryper"
TITLE "To Hell With The Devil [32DP-579]"
FILE "Stryper - To Hell With The Devil [32DP-579].flac" WAVE
TRACK 01 AUDIO
TITLE "Abyss (To Hell With The Devil)"
PERFORMER "Stryper"
INDEX 01 00:00:00
TRACK 02 AUDIO
TITLE "To Hell With The Devil"
PERFORMER "Stryper"
INDEX 01 01:21:35
TRACK 03 AUDIO
TITLE "Calling On You"
PERFORMER "Stryper"
INDEX 00 05:28:00
INDEX 01 05:29:20
TRACK 04 AUDIO
TITLE "Free"
PERFORMER "Stryper"
INDEX 00 09:28:00
INDEX 01 09:28:62
TRACK 05 AUDIO
TITLE "Honestly"
PERFORMER "Stryper"
INDEX 00 13:12:00
INDEX 01 13:13:00
TRACK 06 AUDIO
TITLE "The Way"
PERFORMER "Stryper"
INDEX 00 17:22:25
INDEX 01 17:23:25
TRACK 07 AUDIO
TITLE "Sing - Along Song"
PERFORMER "Stryper"
INDEX 00 21:01:12
INDEX 01 21:03:12
TRACK 08 AUDIO
TITLE "Holding On"
PERFORMER "Stryper"
INDEX 00 25:23:50
INDEX 01 25:24:50
TRACK 09 AUDIO
TITLE "Rockin' The World"
PERFORMER "Stryper"
INDEX 00 29:39:62
INDEX 01 29:40:57
TRACK 10 AUDIO
TITLE "All Of Me"
PERFORMER "Stryper"
INDEX 00 33:10:00
INDEX 01 33:11:00
TRACK 11 AUDIO
TITLE "More Than A Man"
PERFORMER "Stryper"
INDEX 00 36:21:25
INDEX 01 36:22:25


"Лог"
Exact Audio Copy V0.99 prebeta 5 from 4. May 2009

Отчёт EAC об извлечении, выполненном 11. июня 2010, 20:19

Stryper / To Hell With The Devil [32DP-579]

Дисковод: MATSHITADVD-RAM UJ-850S Adapter: 0 ID: 0

Режим чтения : Достоверность
Использование точного потока : Да
Отключение кэша аудио : Да
Использование указателей C2 : Нет

Коррекция смещения при чтении : 102
Способность читать области Lead-in и Lead-out : Нет
Заполнение пропущенных сэмплов тишиной : Да
Удаление блоков с тишиной в начале и конце : Нет
При вычислениях CRC использовались нулевые сэмплы : Да
Интерфейс : Установленный внешний ASPI-интерфейс

Выходной формат : Пользовательский кодировщик
Выбранный битрейт : 128 kBit/s
Качество : Высокий
Добавление ID3-тэга : Нет
Утилита сжатия : C:\Program Files\Exact Audio Copy\Flac\flac.exe
Дополнительные параметры : -6 -V -T "artist=%a" -T "title=%t" -T "album=%g" -T "date=%y" -T "tracknumber=%n" -T "genre=%m" -T "comment=EAC 0.99beta5 / FLAC 1.1.0 q6" %s


TOC извлечённого CD

Трек | Старт | Длительность | Начальный сектор | Конечный сектор
---------------------------------------------------------------------
1 | 0:00.00 | 1:21.35 | 0 | 6109
2 | 1:21.35 | 4:07.60 | 6110 | 24694
3 | 5:29.20 | 3:59.42 | 24695 | 42661
4 | 9:28.62 | 3:44.13 | 42662 | 59474
5 | 13:13.00 | 4:10.25 | 59475 | 78249
6 | 17:23.25 | 3:39.62 | 78250 | 94736
7 | 21:03.12 | 4:21.38 | 94737 | 114349
8 | 25:24.50 | 4:16.07 | 114350 | 133556
9 | 29:40.57 | 3:30.18 | 133557 | 149324
10 | 33:11.00 | 3:11.25 | 149325 | 163674
11 | 36:22.25 | 4:36.62 | 163675 | 184436


Характеристики диапазона извлечения и сообщения об ошибках

Выбранный диапазон

Имя файла Y:\Музыка\Stryper\1986 To Hell With The Devil\Stryper - To Hell With The Devil [32DP-579].wav

Пиковый уровень 91.8 %
Качество диапазона 100.0 %
CRC копии FF0D5F94
Копирование... OK

Ошибок не произошло


AccurateRip: сводка

Трек 1 точное извлечение (доверие 1) [52A84517]
Трек 2 точное извлечение (доверие 1) [1FCFB5B9]
Трек 3 точное извлечение (доверие 1) [FE3F6F74]
Трек 4 точное извлечение (доверие 1) [43E769A6]
Трек 5 точное извлечение (доверие 1) [68539DA8]
Трек 6 точное извлечение (доверие 1) [634A2706]
Трек 7 точное извлечение (доверие 1) [38E679D6]
Трек 8 точное извлечение (доверие 1) [37DE4E68]
Трек 9 точное извлечение (доверие 1) [E8E63CF1]
Трек 10 точное извлечение (доверие 1) [7B20D993]
Трек 11 точное извлечение (доверие 1) [2C6B8F99]

Все треки извлечены точно

Конец отчёта


Состав:
Michael Sweet: Lead Vocals, Guitar
Oz Fox: Guitar
Robert Sweet: Drums
Guests:
Brad Cobb: Bass
John Van Tongren: Keyboards

32DP-579

_________________
Витасу до Даймонда как Алсу до Руссоса | При переразмещении - спрашивать разрешение!!


Top
 Profile  
 
 
PostPosted: 16 Jun 2010 
дядя Миша
User avatar
Joined: 17 Oct 2008
Posts: 3075
Lоcаtion: USSR
Age: 56
Name: Khy
спасибо! :true:


Top
 Profile  
 
 
PostPosted: 16 Jun 2010 
ыыыы
User avatar
Joined: 17 May 2009
Posts: 952
Lоcаtion: Пушкино, МО
Age: 40
Name: Дмитрий
О! на здоровье дядь Миш!! :true:

_________________
Витасу до Даймонда как Алсу до Руссоса | При переразмещении - спрашивать разрешение!!


Top
 Profile  
 
 
PostPosted: 17 Jun 2010 
А может смените мне статус?..
User avatar
Joined: 01 Jun 2008
Posts: 559
Lоcаtion: Россия
Age: 42
Name: Вадик
Может у меня глюки, но песня Guns'n'Roses You Could Be Mine мне напомнила To Hell with the Devil. Особенно похожи гармонии куплета и припева. Да и сама мелодия как-то схожа... :pardon:


Top
 Profile  
 
 
PostPosted: 17 Jun 2010 
ыыыы
User avatar
Joined: 17 May 2009
Posts: 952
Lоcаtion: Пушкино, МО
Age: 40
Name: Дмитрий
чего-то мне кажется, что тут сравниваются хард-роковый рисунок и отчаянное рок-н-ролльное синкопирование :umnik: Не особо они и похожи :vic:

_________________
Витасу до Даймонда как Алсу до Руссоса | При переразмещении - спрашивать разрешение!!


Top
 Profile  
 
 
PostPosted: 22 Jun 2010 
дядя Миша
User avatar
Joined: 17 Oct 2008
Posts: 3075
Lоcаtion: USSR
Age: 56
Name: Khy
Группа с 80-х выпускает великолепные альбомы. Мелодичный метал иногда просто необходимо слушать. Душа отдыхает!Особенно мне нравится , как Stryper удаётся в тему , чередовть жёсткий и мелодичный саунд.


Top
 Profile  
 
 
PostPosted: 22 Jun 2010 
ыыыы
User avatar
Joined: 17 May 2009
Posts: 952
Lоcаtion: Пушкино, МО
Age: 40
Name: Дмитрий
кроме того- попробуй найди Soldiers..с оби-боксом )) я этот-то чудом нашёл :true:

_________________
Витасу до Даймонда как Алсу до Руссоса | При переразмещении - спрашивать разрешение!!


Top
 Profile  
 
 
PostPosted: 23 Jun 2010 
дядя Миша
User avatar
Joined: 17 Oct 2008
Posts: 3075
Lоcаtion: USSR
Age: 56
Name: Khy
iezuit wrote:
кроме того- попробуй найди Soldiers..с оби-боксом )) я этот-то чудом нашёл :true:


так у меня первопресс soldiers американский вроде где то лежит давно.


Top
 Profile  
 
 
PostPosted: 23 Jun 2010 
ыыыы
User avatar
Joined: 17 May 2009
Posts: 952
Lоcаtion: Пушкино, МО
Age: 40
Name: Дмитрий
а я про японский- с оби- боксом, 85 года выпуска))

_________________
Витасу до Даймонда как Алсу до Руссоса | При переразмещении - спрашивать разрешение!!


Top
 Profile  
 
 
PostPosted: 16 Aug 2011 
Хиппей (support team)
User avatar
Joined: 30 Jul 2007
Posts: 108264
Lоcаtion: Киев (Kyiv, UA)
Age: 45
Name: Andrey
mirror: MultiUp l Narod

_________________


Top
 Profile E-mail  
 
 
PostPosted: 16 Aug 2011 
А может смените мне статус?..
User avatar
Joined: 24 Dec 2008
Posts: 621
Age: 44
Name: Дмитрий
Спасибо, вот надумал послушать... :oops:


Top
 Profile  
 
Display posts from previous:  Sort by  
Post new topic Reply to topic  [ 11 posts ] 

All times are UTC + 3 hours


Who is online

Users browsing this forum: No registered users and 2 guests


You cannot post new topics in this forum
You cannot reply to topics in this forum
You cannot edit your posts in this forum
You cannot delete your posts in this forum
You cannot post attachments in this forum

Search for:
Яндекс.Метрика
Powered by phpBB © 2000, 2002, 2005, 2007 phpBB Group