\m/ 80's metal \m/

Информационно-аналитический форум "80 см пыли" (In Search We Trust) "У нас никто никуда не спешит"
Me For You - http://me-4u.com
It is currently 20 Sep 2018

All times are UTC + 3 hours

Spoiler
Chat - temporary registration for foreign users (please leave your application here)







Post new topic Reply to topic  [ 7 posts ] 
Author Message
 
PostPosted: 25 May 2010 
ыыыы
User avatar
Joined: 17 May 2009
Posts: 952
Lоcаtion: Пушкино, МО
Age: 39
Name: Дмитрий
Image


Жанр: Thrash Metal
Происхождение исполнителя: США
Год издания: 1988
Год издания данного носителя: 1988
Страна-производитель носителя: Япония
Аудио кодек: FLAC
Тип рипа: image+.cue
Битрейт аудио: lossless
Продолжительность: 36:57
Рип: Собственный
Лейбл: DEF JAM/WARNER-PIONEER
Каталоговый номер: 25P2-2140
Матрица: 25P2-2140 1 (SONY)

Треклист:
1. South of Heaven 05:01
2. Silent Scream 03:05
3. Live Undead 03:50
4. Behind the Crooked Cross 03:15
5. Mandatory Suicide 04:05
6. Ghosts of War 03:53
7. Read Between the Lies 03:20
8. Cleanse the Soul 03:02
9. Dissident Aggressor (Judas Priest cover) 02:35
10. Spill the Blood 04:51

"Куй"
REM GENRE Metal
REM DATE 1988
REM DISCID 8308A90A
REM COMMENT "ExactAudioCopy v0.99pb5"
PERFORMER "Slayer"
TITLE "South of Heaven [25P2-2140]"
FILE "Slayer - South of Heaven [25P2-2140].flac" WAVE
TRACK 01 AUDIO
TITLE "South of Heaven"
PERFORMER "Slayer"
INDEX 01 00:00:00
TRACK 02 AUDIO
TITLE "Silent Scream"
PERFORMER "Slayer"
INDEX 01 05:00:50
TRACK 03 AUDIO
TITLE "Live Undead"
PERFORMER "Slayer"
INDEX 01 08:05:17
TRACK 04 AUDIO
TITLE "Behind the Crooked Cross"
PERFORMER "Slayer"
INDEX 01 11:55:20
TRACK 05 AUDIO
TITLE "Mandatory Suicide"
PERFORMER "Slayer"
INDEX 01 15:10:00
TRACK 06 AUDIO
TITLE "Ghosts of War"
PERFORMER "Slayer"
INDEX 01 19:15:05
TRACK 07 AUDIO
TITLE "Read Between the Lies"
PERFORMER "Slayer"
INDEX 01 23:08:42
TRACK 08 AUDIO
TITLE "Cleanse the Soul"
PERFORMER "Slayer"
INDEX 01 26:28:57
TRACK 09 AUDIO
TITLE "Dissident Aggressor"
PERFORMER "Slayer"
INDEX 01 29:30:57
TRACK 10 AUDIO
TITLE "Spill the Blood"
PERFORMER "Slayer"
INDEX 01 32:05:70


"Лог"
Exact Audio Copy V0.99 prebeta 5 from 4. May 2009

EAC extraction logfile from 25. May 2010, 11:50

Slayer / South of Heaven [25P2-2140]

Used drive : Optiarc DVD RW AD-7200A Adapter: 0 ID: 0

Read mode : Secure
Utilize accurate stream : Yes
Defeat audio cache : Yes
Make use of C2 pointers : No

Read offset correction : 48
Overread into Lead-In and Lead-Out : No
Fill up missing offset samples with silence : Yes
Delete leading and trailing silent blocks : No
Null samples used in CRC calculations : Yes
Used interface : Native Win32 interface for Win NT & 2000

Used output format : User Defined Encoder
Selected bitrate : 128 kBit/s
Quality : High
Add ID3 tag : No
Command line compressor : C:\Program Files\Exact Audio Copy\Flac\flac.exe
Additional command line options : -8 -V -T "artist=%a" -T "title=%t" -T "album=%g" -T "date=%y" -T "tracknumber=%n" -T "genre=%m" -T "comment=EAC 0.9beta4 / FLAC 1.1.0 q6" %s


TOC of the extracted CD

Track | Start | Length | Start sector | End sector
---------------------------------------------------------
1 | 0:00.00 | 5:00.50 | 0 | 22549
2 | 5:00.50 | 3:04.42 | 22550 | 36391
3 | 8:05.17 | 3:50.03 | 36392 | 53644
4 | 11:55.20 | 3:14.55 | 53645 | 68249
5 | 15:10.00 | 4:05.05 | 68250 | 86629
6 | 19:15.05 | 3:53.37 | 86630 | 104141
7 | 23:08.42 | 3:20.15 | 104142 | 119156
8 | 26:28.57 | 3:02.00 | 119157 | 132806
9 | 29:30.57 | 2:35.13 | 132807 | 144444
10 | 32:05.70 | 4:51.25 | 144445 | 166294


Range status and errors

Selected range

Filename Y:\Музыка\Slayer\1988 South of Heaven\Slayer - South of Heaven [25P2-2140].wav

Peak level 100.0 %
Range quality 100.0 %
Copy CRC 70C5EA8C
Copy OK

No errors occurred

End of status report


Состав:
Tom Araya: Vocals, bass
Jeff Hanneman: Guitars
Kerry King: Guitars
Dave Lombardo: Drums

Народ

_________________
Витасу до Даймонда как Алсу до Руссоса | При переразмещении - спрашивать разрешение!!


Top
 Profile  
 
 
PostPosted: 25 May 2010 
Motörheadache
User avatar
Joined: 04 Feb 2010
Posts: 1294
Lоcаtion: Впереди- горы,позади-степи
Age: 45
Name: Александр
Классигга.... :true: :true: :thanx:

_________________
Eine Nation, Ein Land, Eine Schnaps!

Наш священный долг:защищать Родину,и соблюдать правила личной гигиены....!


Top
 Profile E-mail  
 
 
PostPosted: 25 May 2010 
Alive Again
User avatar
Joined: 17 Dec 2008
Posts: 4668
Lоcаtion: Курск Воронеж Оскол
Age: 44
Name: Дмитрий
интересно сравнить, спасибо!


Top
 Profile E-mail  
 
 
PostPosted: 25 May 2010 
5cm
User avatar
Joined: 01 Mar 2009
Posts: 61
Name: Сергей
Наилучший! Спасибо!


Top
 Profile  
 
 
PostPosted: 25 May 2010 
Персональный статус
Joined: 14 May 2010
Posts: 236
Age: 36
Name: Денис
хорошие отзывы.. присоединяюсь. звук, кстати, тоже хороший! :au:

графики
Image Image


Пока я слушал альбом, и играл на всех инструментах вместе со Slayer :band: , брат благополучно уснул.. время было 17:00. :nunu:


Last edited by disabled on 25 May 2010, edited 1 time in total.

Top
 Profile  
 
 
PostPosted: 25 May 2010 
Позитивный Южанин
User avatar
Joined: 07 May 2010
Posts: 1620
Lоcаtion: КРЫМ
Age: 43
Name: Алексей
ФАКИНГ КУЛЬТ! :true:

_________________
WATER'EM ALL!


Top
 Profile E-mail  
 
 
PostPosted: 29 May 2010 
Power Metal Maniac
User avatar
Joined: 09 Aug 2008
Posts: 6296
Lоcаtion: Москва
Age: 40
Name: Егор
:true:

_________________
Long Live Metal!


Top
 Profile  
 
Display posts from previous:  Sort by  
Post new topic Reply to topic  [ 7 posts ] 

All times are UTC + 3 hours


Who is online

Users browsing this forum: No registered users and 1 guest


You cannot post new topics in this forum
You cannot reply to topics in this forum
You cannot edit your posts in this forum
You cannot delete your posts in this forum
You cannot post attachments in this forum

Search for:
Яндекс.Метрика
Powered by phpBB © 2000, 2002, 2005, 2007 phpBB Group