\m/ 80's metal \m/

Информационно-аналитический форум "80 см пыли" (In Search We Trust) "У нас никто никуда не спешит"
Me For You - http://me-4u.com
It is currently 24 Sep 2018

All times are UTC + 3 hours

Spoiler
Chat - temporary registration for foreign users (please leave your application here)







Post new topic Reply to topic  [ 7 posts ] 
Author Message
 
PostPosted: 22 May 2010 
Motörheadache
User avatar
Joined: 04 Feb 2010
Posts: 1294
Lоcаtion: Впереди- горы,позади-степи
Age: 45
Name: Александр
Image


Band :Saxon
Album:Rock The Nations(1st japanese, black triangle)
Year:1986
Label:TOSHIBA-EMI
Genre: NWOBHM
Coutry: UK
Format: Flac + Log + Cue
Size:286
Scans: Внутри архива

line-up :

Biff Byford: Vocals
Paul Quinn: Guitar
Graham Oliver: Guitar
Nigel Glocker: Drums
Paul Johnson: Bass

Tracklist:
1. Rock the Nations 04:41
2. Battle Cry 05:27
3. Waiting for the Night 04:52
4. We Came Here to Rock 04:21
5. You Ain't No Angel 05:30
6. Running Hot 03:37
7. Party Til You Puke 03:27
8. Empty Promises 04:11
9. Northern Lady 04:42

CUE
REM GENRE "Heavy Metal"
REM DATE 1986
REM DISCID 75099009
REM COMMENT "ExactAudioCopy v0.95b4"
PERFORMER "Saxon"
TITLE "Rock The Nations [CP32-5170]"
FILE "Saxon - Rock The Nations [CP32-5170].flac" WAVE
TRACK 01 AUDIO
TITLE "Rock The Nations"
PERFORMER "Saxon"
INDEX 01 00:00:00
TRACK 02 AUDIO
TITLE "Battle Cry"
PERFORMER "Saxon"
INDEX 01 04:41:05
TRACK 03 AUDIO
TITLE "Waiting For The Night"
PERFORMER "Saxon"
INDEX 01 10:07:52
TRACK 04 AUDIO
TITLE "We Came Here To Rock"
PERFORMER "Saxon"
INDEX 01 14:59:72
TRACK 05 AUDIO
TITLE "You Ain't No Angel"
PERFORMER "Saxon"
INDEX 01 19:20:62
TRACK 06 AUDIO
TITLE "Running Hot"
PERFORMER "Saxon"
INDEX 01 24:51:05
TRACK 07 AUDIO
TITLE "Party 'til You Puke"
PERFORMER "Saxon"
INDEX 01 28:27:60
TRACK 08 AUDIO
TITLE "Empty Promises"
PERFORMER "Saxon"
INDEX 01 31:54:45
TRACK 09 AUDIO
TITLE "Northern Lady"
PERFORMER "Saxon"
INDEX 01 36:05:47



LOG
EAC extraction logfile from 26. December 2009, 16:58 for CD
Saxon / Rock The Nations [CP32-5170]


Used drive : ASUS DRW-2014S1 Adapter: 0 ID: 0
Read mode : Secure with NO C2, accurate stream, disable cache
Read offset correction : 6
Overread into Lead-In and Lead-Out : No


Used output format : Internal WAV Routines
44.100 Hz; 16 Bit; Stereo


Other options :
Fill up missing offset samples with silence : Yes
Delete leading and trailing silent blocks : No
Installed external ASPI interface


Range status and errors
Selected range
Filename Y:\Музыка\Saxon\1986 Rock The Nations\Saxon - Rock The Nations [CP32-5170].wav


Peak level 100.0 %
Range quality 100.0 %
CRC 09FDCDE9
Copy OK


No errors occured


End of status report


http://www.megaupload.com/?d=G67GN8JX

Стянуто с rutracker.org. Автор-ikebana(iezuit) :thanx: :true:
(надеюсь уважаемый Дмитрий не будет против)

_________________
Eine Nation, Ein Land, Eine Schnaps!

Наш священный долг:защищать Родину,и соблюдать правила личной гигиены....!


Top
 Profile E-mail  
 
 
PostPosted: 22 May 2010 
парень в очёчкXаX!
User avatar
Joined: 15 Aug 2007
Posts: 2353
Lоcаtion: UK'раина, г. ЛондАн Би-Би-Си
Age: 47
Name: Сергей
просто аFFигительный альбом и само издание!
мои благодарности обладателю "чёрного треугольника" и автору данного поста alexx1973!
:drink:


Top
 Profile  
 
 
PostPosted: 23 May 2010 
Хиппей (support team)
User avatar
Joined: 30 Jul 2007
Posts: 106508
Lоcаtion: Киев (Kyiv, UA)
Age: 45
Name: Andrey
Дима, спасибо за рип и Сане за перезаливку альбома в более удобное место :thanx:

_________________


Top
 Profile E-mail  
 
 
PostPosted: 25 May 2010 
ыыыы
User avatar
Joined: 17 May 2009
Posts: 952
Lоcаtion: Пушкино, МО
Age: 39
Name: Дмитрий
:crazy: круговорот лосей в природе))

_________________
Витасу до Даймонда как Алсу до Руссоса | При переразмещении - спрашивать разрешение!!


Top
 Profile  
 
 
PostPosted: 25 May 2010 
Персональный статус
Joined: 14 May 2010
Posts: 236
Age: 36
Name: Денис
:smile:


Top
 Profile  
 
 
PostPosted: 25 May 2010 
Motörheadache
User avatar
Joined: 04 Feb 2010
Posts: 1294
Lоcаtion: Впереди- горы,позади-степи
Age: 45
Name: Александр
iezuit wrote:
:crazy: круговорот лосей в природе))

:pardon: :pardon: :pardon: :crazy:

_________________
Eine Nation, Ein Land, Eine Schnaps!

Наш священный долг:защищать Родину,и соблюдать правила личной гигиены....!


Top
 Profile E-mail  
 
 
PostPosted: 10 Apr 2011 
Позитивный Южанин
User avatar
Joined: 07 May 2010
Posts: 1620
Lоcаtion: КРЫМ
Age: 43
Name: Алексей
ооо набрёл случаем :thanx:

_________________
WATER'EM ALL!


Top
 Profile E-mail  
 
Display posts from previous:  Sort by  
Post new topic Reply to topic  [ 7 posts ] 

All times are UTC + 3 hours


Who is online

Users browsing this forum: No registered users and 2 guests


You cannot post new topics in this forum
You cannot reply to topics in this forum
You cannot edit your posts in this forum
You cannot delete your posts in this forum
You cannot post attachments in this forum

Search for:
Яндекс.Метрика
Powered by phpBB © 2000, 2002, 2005, 2007 phpBB Group