\m/ 80's metal \m/

Информационно-аналитический форум "80 см пыли" (In Search We Trust) "У нас никто никуда не спешит"
Железнодорожная биржа - RailAgent
It is currently 23 Jul 2018

All times are UTC + 3 hours

Spoiler
Chat - temporary registration for foreign users (please leave your application here)







Post new topic Reply to topic  [ 8 posts ] 
Author Message
 
PostPosted: 18 May 2010 
ыыыы
User avatar
Joined: 17 May 2009
Posts: 952
Lоcаtion: Пушкино, МО
Age: 39
Name: Дмитрий
Image


Жанр: NWOBHM/Traditional Metal
Происхождение исполнителя: Англия
Год издания: 1991
Год издания данного носителя: 1991
Страна-производитель носителя: Япония
Аудио кодек: FLAC
Тип рипа: image+.cue
Битрейт аудио: lossless
Продолжительность: 53:04
Рип: Собственный
Лейбл: VIRGIN/TEICHIKU
Каталоговый номер: TECP-28783
Матрица: TECP-28783-A1K 11 V (JVC)

Треклист:
1. Solid Ball of Rock 04:40
2. Altar of the Gods 03:42
3. Requiem (We Will Remember) 05:18
4. Lights in the Sky 04:07
5. I Just Can't Get Enough 04:38
6. Baptism of Fire 03:13
7. Ain't Gonna Take It 04:52
8. I'm On Fire 04:23
9. Overture In B-Minor / Refugee 05:38
10. Bavarian Rhapsody 01:15
11. Crash Dive 03:08
12. Requiem (We Will Remember) (single version) 4:44
13. Reeperbahn Stomp 3:26

"Куй"
REM GENRE "Heavy Metal"
REM DATE 1991
REM DISCID B60C700D
REM COMMENT "ExactAudioCopy v0.99pb5"
PERFORMER "Saxon"
TITLE "Solid Ball Of Rock [TECP-28783]"
FILE "Saxon - Solid Ball Of Rock [TECP-28783].flac" WAVE
TRACK 01 AUDIO
TITLE "Solid Ball Of Rock"
PERFORMER "Saxon"
INDEX 00 00:00:00
INDEX 01 00:00:37
TRACK 02 AUDIO
TITLE "Altar Of The Gods"
PERFORMER "Saxon"
INDEX 00 04:37:71
INDEX 01 04:40:50
TRACK 03 AUDIO
TITLE "Requiem (We Will Remember)"
PERFORMER "Saxon"
INDEX 00 08:19:66
INDEX 01 08:22:47
TRACK 04 AUDIO
TITLE "Lights In The Sky"
PERFORMER "Saxon"
INDEX 00 13:38:38
INDEX 01 13:40:62
TRACK 05 AUDIO
TITLE "I Just Can't Get Enough"
PERFORMER "Saxon"
INDEX 00 17:45:18
INDEX 01 17:47:70
TRACK 06 AUDIO
TITLE "Baptism Of Fire"
PERFORMER "Saxon"
INDEX 00 22:24:33
INDEX 01 22:26:25
TRACK 07 AUDIO
TITLE "Ain't Gonna Take It"
PERFORMER "Saxon"
INDEX 00 25:36:73
INDEX 01 25:39:02
TRACK 08 AUDIO
TITLE "I'm On Fire"
PERFORMER "Saxon"
INDEX 00 30:29:06
INDEX 01 30:31:10
TRACK 09 AUDIO
TITLE "Overture In B Minor - Refugee"
PERFORMER "Saxon"
INDEX 00 34:52:26
INDEX 01 34:54:45
TRACK 10 AUDIO
TITLE "Bavarian Beaver"
PERFORMER "Saxon"
INDEX 00 40:29:63
INDEX 01 40:32:27
TRACK 11 AUDIO
TITLE "Crash Dive"
PERFORMER "Saxon"
INDEX 01 41:47:17
TRACK 12 AUDIO
TITLE "Requiem (We Will Remember) (Single Version)"
PERFORMER "Saxon"
INDEX 00 44:54:58
INDEX 01 44:55:22
TRACK 13 AUDIO
TITLE "Reeperbahn Stomp"
PERFORMER "Saxon"
INDEX 00 49:36:58
INDEX 01 49:38:65


"Лог"
Exact Audio Copy V0.99 prebeta 5 from 4. May 2009

EAC extraction logfile from 18. May 2010, 10:48

Saxon / Solid Ball Of Rock [TECP-28783]

Used drive : Optiarc DVD RW AD-7200A Adapter: 0 ID: 0

Read mode : Secure
Utilize accurate stream : Yes
Defeat audio cache : Yes
Make use of C2 pointers : No

Read offset correction : 48
Overread into Lead-In and Lead-Out : No
Fill up missing offset samples with silence : Yes
Delete leading and trailing silent blocks : No
Null samples used in CRC calculations : Yes
Used interface : Native Win32 interface for Win NT & 2000

Used output format : User Defined Encoder
Selected bitrate : 128 kBit/s
Quality : High
Add ID3 tag : No
Command line compressor : C:\Program Files\Exact Audio Copy\Flac\flac.exe
Additional command line options : -8 -V -T "artist=%a" -T "title=%t" -T "album=%g" -T "date=%y" -T "tracknumber=%n" -T "genre=%m" -T "comment=EAC 0.9beta4 / FLAC 1.1.0 q6" %s


TOC of the extracted CD

Track | Start | Length | Start sector | End sector
---------------------------------------------------------
1 | 0:00.37 | 4:40.13 | 37 | 21049
2 | 4:40.50 | 3:41.72 | 21050 | 37696
3 | 8:22.47 | 5:18.15 | 37697 | 61561
4 | 13:40.62 | 4:07.08 | 61562 | 80094
5 | 17:47.70 | 4:38.30 | 80095 | 100974
6 | 22:26.25 | 3:12.52 | 100975 | 115426
7 | 25:39.02 | 4:52.08 | 115427 | 137334
8 | 30:31.10 | 4:23.35 | 137335 | 157094
9 | 34:54.45 | 5:37.57 | 157095 | 182426
10 | 40:32.27 | 1:14.65 | 182427 | 188041
11 | 41:47.17 | 3:08.05 | 188042 | 202146
12 | 44:55.22 | 4:43.43 | 202147 | 223414
13 | 49:38.65 | 3:25.72 | 223415 | 238861


Range status and errors

Selected range

Filename Y:\Музыка\Saxon\1991 Solid Ball Of Rock\Saxon - Solid Ball Of Rock [TECP-28783].wav

Peak level 96.3 %
Range quality 99.9 %
Copy CRC 84ED3EA7
Copy OK

No errors occurred

End of status report


Состав:
Biff Byford: Vocals
Paul Quinn: Guitar
Graham Oliver: Guitar
Nibbs Carter: Bass
Nigel Glockler: Drums

Народ

_________________
Витасу до Даймонда как Алсу до Руссоса | При переразмещении - спрашивать разрешение!!


Top
 Profile  
 
 
PostPosted: 18 May 2010 
Анатолий
User avatar
Joined: 18 Oct 2008
Posts: 3066
Lоcаtion: Армавир
Age: 41
Name: Анатолий
Боже... сколько же у тебя ИХ, а? :shok: :fingal:

Спасибо большое за релизы! :thanx:


Top
 Profile E-mail  
 
 
PostPosted: 18 May 2010 
ыыыы
User avatar
Joined: 17 May 2009
Posts: 952
Lоcаtion: Пушкино, МО
Age: 39
Name: Дмитрий
у меня их значительное количество :nunu:

_________________
Витасу до Даймонда как Алсу до Руссоса | При переразмещении - спрашивать разрешение!!


Top
 Profile  
 
 
PostPosted: 18 May 2010 
Хиппей (support team)
User avatar
Joined: 30 Jul 2007
Posts: 105221
Lоcаtion: Киев (Kyiv, UA)
Age: 45
Name: Andrey
Спасибо, обожаю этот альбом :thanx:

_________________


Top
 Profile E-mail  
 
 
PostPosted: 18 May 2010 
Персональный статус
User avatar
Joined: 24 Aug 2007
Posts: 297
Lоcаtion: Иваново
Age: 45
Name: Вован
Зачётный альбомец :true:


Top
 Profile E-mail  
 
 
PostPosted: 18 May 2010 
парень в очёчкXаX!
User avatar
Joined: 15 Aug 2007
Posts: 2353
Lоcаtion: UK'раина, г. ЛондАн Би-Би-Си
Age: 47
Name: Сергей
СУПЕРСКИЕ ИЗДАНИЯ!
мои благодарности :thanx:

ps: а случаем 86-го в этой линейке не предвидится?


Top
 Profile  
 
 
PostPosted: 18 May 2010 
Анатолий
User avatar
Joined: 18 Oct 2008
Posts: 3066
Lоcаtion: Армавир
Age: 41
Name: Анатолий
Он уже лежит на торрентах.


Top
 Profile E-mail  
 
 
PostPosted: 18 May 2010 
ыыыы
User avatar
Joined: 17 May 2009
Posts: 952
Lоcаtion: Пушкино, МО
Age: 39
Name: Дмитрий
В этой линейке он мне ни к чему )) издавался в 93 или 94 году на Тошибе, а нафига он, если есть первоиз 86, да еще и треугольник :crazy:
Давно уже выкладывал но сиды вроде есть )) http://rutracker.org/forum/viewtopic.php?t=2566749

_________________
Витасу до Даймонда как Алсу до Руссоса | При переразмещении - спрашивать разрешение!!


Top
 Profile  
 
Display posts from previous:  Sort by  
Post new topic Reply to topic  [ 8 posts ] 

All times are UTC + 3 hours


Who is online

Users browsing this forum: No registered users and 2 guests


You cannot post new topics in this forum
You cannot reply to topics in this forum
You cannot edit your posts in this forum
You cannot delete your posts in this forum
You cannot post attachments in this forum

Search for:
Яндекс.Метрика
Powered by phpBB © 2000, 2002, 2005, 2007 phpBB Group