\m/ 80's metal \m/

Информационно-аналитический форум "80 см пыли" (In Search We Trust) "У нас никто никуда не спешит"
Me For You - http://me-4u.com
It is currently 24 Sep 2018

All times are UTC + 3 hours

Spoiler
Chat - temporary registration for foreign users (please leave your application here)







Post new topic Reply to topic  [ 2 posts ] 
Author Message
 
PostPosted: 04 May 2010 
Old Time Rock`n`Roll
User avatar
Joined: 23 Jun 2008
Posts: 3354
Lоcаtion: г.Ульяновск
Age: 40
Name: Константин
Streetheart – Streetheart (1982)

Image

Year: 1982
Style: Melodic Rock
Country: Canada
Format: APE + log + cue + scans & mp3-320
Size: 284 Mb + 92 Mb

Tracklist
01.Without Your Love
02.Mad As Hell
03.Miss Plaza Suite
04.Wired
05.What Kind Of Love Is This
06.Snow White
07.Look In Your Eyes
08.Aint In No Hurry
09.One More Time

TPT – 40:09

Line-Up
Kenny Shields – Lead Vocal, Percussion
Daryl Gutheil – Keyboards, Vocals
Jeff Neill – Guitar, Vocals
Spider - Bass
Herb Ego - Drums

Album Credits:
Produced: Streetheart and George Semkiv
Engineered: George Semkiv and Ralph Watts

Log
EAC extraction logfile from 30. November 2005, 22:17 for CD
Streetheart / Streetheart

Used drive : HL-DT-STDVD-ROM GDR8163B Adapter: 0 ID: 1
Read mode : Secure with NO C2, accurate stream, disable cache
Read offset correction : 0
Overread into Lead-In and Lead-Out : No

Used output format : C:\Archivos de programa\Monkey's Audio\MAC.exe (Monkey's Audio Lossless Encoder)
High Lossless Compression

Other options :
Fill up missing offset samples with silence : Yes
Delete leading and trailing silent blocks : No
Installed external ASPI interface


Range status and errors
Selected range
Filename C:\Documents and Settings\Usuario\Escritorio\Streetheart-st.x.arrow(WWR)(EAC.APE)\CDImage.wav

Peak level 99.0 %
Range quality 100.0 %
CRC BEF4A7C5
Copy OK

No errors occured

End of status report


Cue
PERFORMER "Streetheart"
TITLE "Streetheart"
FILE "CDImage.ape" WAVE
TRACK 01 AUDIO
TITLE "Without Your Love"
PERFORMER "Streetheart"
INDEX 00 00:00:00
INDEX 01 00:00:30
TRACK 02 AUDIO
TITLE "Mad As Hell"
PERFORMER "Streetheart"
INDEX 01 05:06:49
TRACK 03 AUDIO
TITLE "Miss Plaza Suite"
PERFORMER "Streetheart"
INDEX 01 08:49:30
TRACK 04 AUDIO
TITLE "Wired"
PERFORMER "Streetheart"
INDEX 01 14:30:08
TRACK 05 AUDIO
TITLE "What Kind Of Love Is This?"
PERFORMER "Streetheart"
INDEX 01 17:46:19
TRACK 06 AUDIO
TITLE "Snow White"
PERFORMER "Streetheart"
INDEX 01 21:41:32
TRACK 07 AUDIO
TITLE "Look In Your Eyes"
PERFORMER "Streetheart"
INDEX 01 25:43:26
TRACK 08 AUDIO
TITLE "Ain't In No Hurry"
PERFORMER "Streetheart"
INDEX 01 30:34:41
TRACK 09 AUDIO
TITLE "One More Time"
PERFORMER "Streetheart"
INDEX 01 35:35:36


APE
megaupload-APE
narod-APE

mp3-320
megaupload-320

Рип с WWR, автор – arrow. Забытая классика канадского мелодик-рока.

Image


Top
 Profile  
 
 
PostPosted: 04 May 2010 
Хиппей (support team)
User avatar
Joined: 30 Jul 2007
Posts: 106508
Lоcаtion: Киев (Kyiv, UA)
Age: 45
Name: Andrey
:thanx:

_________________


Top
 Profile E-mail  
 
Display posts from previous:  Sort by  
Post new topic Reply to topic  [ 2 posts ] 

All times are UTC + 3 hours


Who is online

Users browsing this forum: No registered users and 1 guest


You cannot post new topics in this forum
You cannot reply to topics in this forum
You cannot edit your posts in this forum
You cannot delete your posts in this forum
You cannot post attachments in this forum

Search for:
Яндекс.Метрика
Powered by phpBB © 2000, 2002, 2005, 2007 phpBB Group