\m/ 80's metal \m/

Информационно-аналитический форум "80 см пыли" (In Search We Trust) "У нас никто никуда не спешит"
Me For You - http://me-4u.com
It is currently 16 Nov 2018

All times are UTC + 3 hours

Spoiler
Chat - temporary registration for foreign users (please leave your application here)







Post new topic Reply to topic  [ 13 posts ] 
Author Message
 
PostPosted: 20 Apr 2010 
ыыыы
User avatar
Joined: 17 May 2009
Posts: 952
Lоcаtion: Пушкино, МО
Age: 40
Name: Дмитрий
Image


Жанр: Thrash Metal/Crossover
Происхождение исполнителя: США
Год издания: 1990
Год издания данного носителя: 1990
Страна-производитель носителя: Япония
Аудио кодек: FLAC
Тип рипа: image+.cue
Битрейт аудио: lossless
Продолжительность: 42:57
Рип: Собственный
Лейбл: EPIC/CBS-SONY
Каталоговый номер: ESCA-5132
Матрица: DP-3890 1 (SONY)

Треклист:
1. You Can't Bring Me Down 05:50
2. Lost Again 05:17
3. Alone 04:24
4. Lovely 03:46
5. Give it Revolution 04:22
6. Get Whacked 04:24
7. Send Me Your Money 03:25
8. Emotion No. 13 03:43
9. Disco's Out, Murder's In 03:08
10. Go'n Breakdown 04:39

"Куй"
REM GENRE "Heavy Metal"
REM DATE 1990
REM DISCID 7B0A110A
REM COMMENT "ExactAudioCopy v0.99pb5"
PERFORMER "Suicidal Tendencies"
TITLE "Lights... Camera... Revolution [ESCA-5132]"
FILE "Suicidal Tendencies - Lights... Camera... Revolution [ESCA-5132].flac" WAVE
TRACK 01 AUDIO
TITLE "You Can't Bring Me Down"
PERFORMER "Suicidal Tendencies"
INDEX 01 00:00:00
TRACK 02 AUDIO
TITLE "Lost Again"
PERFORMER "Suicidal Tendencies"
INDEX 01 05:49:60
TRACK 03 AUDIO
TITLE "Alone"
PERFORMER "Suicidal Tendencies"
INDEX 01 11:06:47
TRACK 04 AUDIO
TITLE "Lovely"
PERFORMER "Suicidal Tendencies"
INDEX 01 15:30:50
TRACK 05 AUDIO
TITLE "Give It Revolution"
PERFORMER "Suicidal Tendencies"
INDEX 01 19:16:27
TRACK 06 AUDIO
TITLE "Get Whacked"
PERFORMER "Suicidal Tendencies"
INDEX 01 23:38:30
TRACK 07 AUDIO
TITLE "Send Me Your Money"
PERFORMER "Suicidal Tendencies"
INDEX 01 28:02:32
TRACK 08 AUDIO
TITLE "Emotion No. 13"
PERFORMER "Suicidal Tendencies"
INDEX 00 31:25:30
INDEX 01 31:27:00
TRACK 09 AUDIO
TITLE "Disco's Out, Murder's In"
PERFORMER "Suicidal Tendencies"
INDEX 01 35:10:12
TRACK 10 AUDIO
TITLE "Go'n Breakdown"
PERFORMER "Suicidal Tendencies"
INDEX 00 38:16:70
INDEX 01 38:18:02


"Лог"
Exact Audio Copy V0.99 prebeta 5 from 4. May 2009

EAC extraction logfile from 20. April 2010, 12:55

Suicidal Tendencies / Lights... Camera... Revolution [ESCA-5132]

Used drive : Optiarc DVD RW AD-7200A Adapter: 0 ID: 0

Read mode : Secure
Utilize accurate stream : Yes
Defeat audio cache : Yes
Make use of C2 pointers : No

Read offset correction : 48
Overread into Lead-In and Lead-Out : No
Fill up missing offset samples with silence : Yes
Delete leading and trailing silent blocks : No
Null samples used in CRC calculations : Yes
Used interface : Native Win32 interface for Win NT & 2000

Used output format : User Defined Encoder
Selected bitrate : 128 kBit/s
Quality : High
Add ID3 tag : No
Command line compressor : C:\Program Files\Exact Audio Copy\Flac\flac.exe
Additional command line options : -8 -V -T "artist=%a" -T "title=%t" -T "album=%g" -T "date=%y" -T "tracknumber=%n" -T "genre=%m" -T "comment=EAC 0.9beta4 / FLAC 1.1.0 q6" %s


TOC of the extracted CD

Track | Start | Length | Start sector | End sector
---------------------------------------------------------
1 | 0:00.00 | 5:49.60 | 0 | 26234
2 | 5:49.60 | 5:16.62 | 26235 | 49996
3 | 11:06.47 | 4:24.03 | 49997 | 69799
4 | 15:30.50 | 3:45.52 | 69800 | 86726
5 | 19:16.27 | 4:22.03 | 86727 | 106379
6 | 23:38.30 | 4:24.02 | 106380 | 126181
7 | 28:02.32 | 3:24.43 | 126182 | 141524
8 | 31:27.00 | 3:43.12 | 141525 | 158261
9 | 35:10.12 | 3:07.65 | 158262 | 172351
10 | 38:18.02 | 4:39.30 | 172352 | 193306


Range status and errors

Selected range

Filename Y:\Музыка\Suicidal Tendencies\1990 Lights... Camera... Revolution\Suicidal Tendencies - Lights... Camera... Revolution [ESCA-5132].wav

Peak level 89.7 %
Range quality 100.0 %
Copy CRC 6BC18559
Copy OK

No errors occurred

End of status report


Состав:
Mike Clark: Guitar
Rock George: Guitar
R.J Herrera: Drums
Mike Muir: Vocals
Robert Trujillo: Bass

Народ

_________________
Витасу до Даймонда как Алсу до Руссоса | При переразмещении - спрашивать разрешение!!


Top
 Profile  
 
 
PostPosted: 20 Apr 2010 
Хиппей (support team)
User avatar
Joined: 30 Jul 2007
Posts: 108037
Lоcаtion: Киев (Kyiv, UA)
Age: 45
Name: Andrey
:true:

_________________


Top
 Profile E-mail  
 
 
PostPosted: 20 Apr 2010 
ыыыы
User avatar
Joined: 17 May 2009
Posts: 952
Lоcаtion: Пушкино, МО
Age: 40
Name: Дмитрий
и чего мы кричим? )))

_________________
Витасу до Даймонда как Алсу до Руссоса | При переразмещении - спрашивать разрешение!!


Top
 Profile  
 
 
PostPosted: 20 Apr 2010 
Хиппей (support team)
User avatar
Joined: 30 Jul 2007
Posts: 108037
Lоcаtion: Киев (Kyiv, UA)
Age: 45
Name: Andrey
Ну как бы особогого повода для ора нет. Но - группа очень любимая, альбом из самых любимых и ваще классика собственного жанра + японец.
Но качать опять некуды. Поэтому и шумлю :dash:

_________________


Top
 Profile E-mail  
 
 
PostPosted: 20 Apr 2010 
ыыыы
User avatar
Joined: 17 May 2009
Posts: 952
Lоcаtion: Пушкино, МО
Age: 40
Name: Дмитрий
да я шучу! :nunu:

_________________
Витасу до Даймонда как Алсу до Руссоса | При переразмещении - спрашивать разрешение!!


Top
 Profile  
 
 
PostPosted: 20 Apr 2010 
Хиппей (support team)
User avatar
Joined: 30 Jul 2007
Posts: 108037
Lоcаtion: Киев (Kyiv, UA)
Age: 45
Name: Andrey
А я нет :cry:

_________________


Top
 Profile E-mail  
 
 
PostPosted: 20 Apr 2010 
ыыыы
User avatar
Joined: 17 May 2009
Posts: 952
Lоcаtion: Пушкино, МО
Age: 40
Name: Дмитрий
:shok:

_________________
Витасу до Даймонда как Алсу до Руссоса | При переразмещении - спрашивать разрешение!!


Top
 Profile  
 
 
PostPosted: 20 Apr 2010 
Дежурный по КУПу
User avatar
Joined: 17 Aug 2007
Posts: 5869
Age: 50
Name: Ге
Обожаю Suicidal Tendencies, спасибо за альбомчик!

_________________
http://jp-mania.ru/
http://jp-tourdates.ucoz.ru/


Top
 Profile  
 
 
PostPosted: 20 Apr 2010 
дядя Миша
User avatar
Joined: 17 Oct 2008
Posts: 3072
Lоcаtion: USSR
Age: 56
Name: Khy
да - да , группа отличная! Альбомчик этот давноооо в стойле моём.


Top
 Profile  
 
 
PostPosted: 31 Jul 2011 
ТрэшЭрос
User avatar
Joined: 18 Jul 2011
Posts: 2299
Lоcаtion: Гулькевичи
Age: 43
Name: Александр
Народ, превед!
Яндекс 404 Нет такой страницы :dash:

_________________
Thrash no trash!!!


Top
 Profile E-mail  
 
 
PostPosted: 01 Aug 2011 
Хиппей (support team)
User avatar
Joined: 30 Jul 2007
Posts: 108037
Lоcаtion: Киев (Kyiv, UA)
Age: 45
Name: Andrey
:arrow: копия копии здесь http://rutracker.org/forum/viewtopic.php?t=2913902 :losik:

Завтра перелью :cow:

_________________


Top
 Profile E-mail  
 
 
PostPosted: 01 Aug 2011 
Хиппей (support team)
User avatar
Joined: 30 Jul 2007
Posts: 108037
Lоcаtion: Киев (Kyiv, UA)
Age: 45
Name: Andrey
mirror: MultiUp l Narod

_________________


Top
 Profile E-mail  
 
 
PostPosted: 01 Aug 2011 
ТрэшЭрос
User avatar
Joined: 18 Jul 2011
Posts: 2299
Lоcаtion: Гулькевичи
Age: 43
Name: Александр
тяжметалское :thanx:

_________________
Thrash no trash!!!


Top
 Profile E-mail  
 
Display posts from previous:  Sort by  
Post new topic Reply to topic  [ 13 posts ] 

All times are UTC + 3 hours


Who is online

Users browsing this forum: No registered users and 1 guest


You cannot post new topics in this forum
You cannot reply to topics in this forum
You cannot edit your posts in this forum
You cannot delete your posts in this forum
You cannot post attachments in this forum

Search for:
Яндекс.Метрика
Powered by phpBB © 2000, 2002, 2005, 2007 phpBB Group