\m/ 80's metal \m/

Информационно-аналитический форум "80 см пыли" (In Search We Trust) "У нас никто никуда не спешит"
Me For You - http://me-4u.com
It is currently 19 Sep 2018

All times are UTC + 3 hours

Spoiler
Chat - temporary registration for foreign users (please leave your application here)







Post new topic Reply to topic  [ 5 posts ] 
Author Message
 
PostPosted: 10 Apr 2010 
А может смените мне статус?..
User avatar
Joined: 22 Nov 2008
Posts: 962
Lоcаtion: Schelcovo,Russia
Age: 46
Name: Сергей
Image
Stargazer - Stargazer (1994) Long Island Records

Genre:GHard Rock
Year: 1994
Country: Germany
Bitrate: flac+cue+log+scans
Size: 466Mb

Track List:
1. Back On The Street 3:20
2. In Your Eyes 3:35
3. Break Out 6:04
4. The WIzzard 5:03
5. Stargazer 3:37
6. Ruins Of Love 5:19
7. I See Rainbows 4:21
8. The Fall 7:21
9. I Don't Know Why 7:40
10. Blond Mane 7:49
11. Sometimes It's Heaven 6:34
12. Break The Law 4:02

Band:
Armin Fendl - Vocals
Paul Krieger - Guitars
Werner Eigner - Bass
Rainer Thanner - Keyboards
Klaus Leichtl - Drums

"Куй"
REM GENRE AOR
REM DATE 1980
REM DISCID A20F330C
REM COMMENT "ExactAudioCopy v0.95b4"
PERFORMER "Stargazer"
TITLE "Rock Classic Stargazer"
FILE "Stargazer - Rock Classic Stargazer.wav" WAVE
TRACK 01 AUDIO
TITLE "Back On The Street"
PERFORMER "Stargazer"
INDEX 01 00:00:00
TRACK 02 AUDIO
TITLE "In Your Eyes"
PERFORMER "Stargazer"
INDEX 00 03:19:11
INDEX 01 03:20:42
TRACK 03 AUDIO
TITLE "Break Out"
PERFORMER "Stargazer"
INDEX 00 06:54:60
INDEX 01 06:56:30
TRACK 04 AUDIO
TITLE "The WIzzard"
PERFORMER "Stargazer"
INDEX 00 12:59:38
INDEX 01 13:01:05
TRACK 05 AUDIO
TITLE "Stargazer"
PERFORMER "Stargazer"
INDEX 00 18:03:03
INDEX 01 18:04:52
TRACK 06 AUDIO
TITLE "Ruins Of Love"
PERFORMER "Stargazer"
INDEX 00 21:40:65
INDEX 01 21:42:30
TRACK 07 AUDIO
TITLE "I See Rainbows"
PERFORMER "Stargazer"
INDEX 00 27:00:25
INDEX 01 27:01:67
TRACK 08 AUDIO
TITLE "The Fall"
PERFORMER "Stargazer"
INDEX 00 31:22:16
INDEX 01 31:23:55
TRACK 09 AUDIO
TITLE "I Don't Know Why"
PERFORMER "Stargazer"
INDEX 00 38:43:26
INDEX 01 38:44:62
TRACK 10 AUDIO
TITLE "Blond Mane"
PERFORMER "Stargazer"
INDEX 00 46:24:10
INDEX 01 46:25:12
TRACK 11 AUDIO
TITLE "Sometimes It's Heaven"
PERFORMER "Stargazer"
INDEX 00 54:12:70
INDEX 01 54:14:37
TRACK 12 AUDIO
TITLE "Break The Law"
PERFORMER "Stargazer"
INDEX 00 60:47:50
INDEX 01 60:49:17


"Лог"
Отчёт EAC об извлечении, выполненном 10. апреля 2010, 11:54 для диска:
Stargazer / Rock Classic Stargazer

Дисковод: MATSHITADVD-RAM UJ-850S Adapter: 2 ID: 0
Режим чтения: Достоверный (C2: нет, Точный поток: да, Отключение кэша: да)
Коррекция смещения при чтении: 102
Способность читать области Lead-in и Lead-out : Нет

Выходной формат: Внутренние WAV-операции
44.100 Гц; 16 бит; стерео

Другие параметры:
Заполнение пропущенных сэмплов тишиной : Да
Удаление блоков с тишиной в начале и конце : Нет
Установленный внешний ASPI-интерфейс


Характеристики диапазона извлечения и сообщения об ошибках
Выбранный диапазон
Имя файла D:\Мои Документы\Моя музыка\Stargazer - Rock Classic Stargazer.wav

Пиковый уровень 98.4 %
Качество диапазона 100.0 %
CRC 841A22A1
Копирование... OK

Ошибок не произошло

Конец отчёта


Диск предоставил Алексей "Alexbeer".

Mega


Top
 Profile  
 
 
PostPosted: 10 Apr 2010 
хард н хэвщик (support team)
User avatar
Joined: 02 Jun 2008
Posts: 16880
Lоcаtion: Н.Новгород
Age: 31
Name: Артем
:true: ура, забираю, без сомнений :thanx:


Top
 Profile  
 
 
PostPosted: 10 Apr 2010 
А может смените мне статус?..
Joined: 03 Jul 2009
Posts: 786
Lоcаtion: Serbia
Name: Laki
Thanks :thanx:


Top
 Profile E-mail  
 
 
PostPosted: 10 Apr 2010 
Хиппей (support team)
User avatar
Joined: 30 Jul 2007
Posts: 106323
Lоcаtion: Киев (Kyiv, UA)
Age: 45
Name: Andrey
Спасибо! :true:

_________________


Top
 Profile E-mail  
 
 
PostPosted: 11 Apr 2010 
Персональный статус
Joined: 06 Oct 2007
Posts: 339
Спасибо за этот альбом - жемчужину!
А треки здесь перепутаны так же как и на той мп-шки что я когда-то заливал, следовательно это
Long Island все напутал.
На диске треки с первого по пятый на самом деле идут в таком порядке:
1. Back On The Street
2. Stargazer
3. In Your Eyes
4. The Wizzard
5. Break Out


Top
 Profile  
 
Display posts from previous:  Sort by  
Post new topic Reply to topic  [ 5 posts ] 

All times are UTC + 3 hours


Who is online

Users browsing this forum: No registered users and 2 guests


You cannot post new topics in this forum
You cannot reply to topics in this forum
You cannot edit your posts in this forum
You cannot delete your posts in this forum
You cannot post attachments in this forum

Search for:
Яндекс.Метрика
Powered by phpBB © 2000, 2002, 2005, 2007 phpBB Group