\m/ 80's metal \m/

Информационно-аналитический форум "80 см пыли" (In Search We Trust) "У нас никто никуда не спешит"
Me For You - http://me-4u.com
It is currently 19 Sep 2018

All times are UTC + 3 hours

Spoiler
Chat - temporary registration for foreign users (please leave your application here)







Post new topic Reply to topic  [ 7 posts ] 
Author Message
 
PostPosted: 06 Apr 2010 
ыыыы
User avatar
Joined: 17 May 2009
Posts: 952
Lоcаtion: Пушкино, МО
Age: 39
Name: Дмитрий
Image


Жанр: Hard Rock
Происхождение исполнителя: США
Год издания: 1989
Год издания данного носителя: 1989
Страна-производитель носителя: Япония
Аудио кодек: FLAC
Тип рипа: image+.cue
Битрейт аудио: lossless
Продолжительность: 48:09
Рип: Собственный
Лейбл: EPIC/SONY
Каталоговый номер: ESCA-5010
Матрица: DPA-1014 1 (SONY)

Треклист:
01. Paris Calling 04:52
02. Shake For Me 04:07
03. Somebody's Falling 03:59
04. Bad For Each Other 04:38
05. Passion To Ashes 04:01
06. Spellbound 03:15
07. Get Some Strange 04:11
08. Why Should I Believe 05:34
09. Ready Or Not 03:37
10. The Chains 05:35
11. Make A Move 04:20

"Куй"
REM GENRE "Hard Rock"
REM DATE 1989
REM DISCID A10B490B
REM COMMENT "ExactAudioCopy v0.99pb5"
PERFORMER "Shark Island"
TITLE "Law Of The Order [ESCA-5010]"
FILE "Shark Island - Law Of The Order [ESCA-5010].flac" WAVE
TRACK 01 AUDIO
TITLE "Paris Calling"
PERFORMER "Shark Island"
INDEX 01 00:00:00
TRACK 02 AUDIO
TITLE "Shake For Me"
PERFORMER "Shark Island"
INDEX 00 04:51:60
INDEX 01 04:52:15
TRACK 03 AUDIO
TITLE "Somebody's Falling"
PERFORMER "Shark Island"
INDEX 00 08:57:65
INDEX 01 08:59:25
TRACK 04 AUDIO
TITLE "Bad For Each Other"
PERFORMER "Shark Island"
INDEX 01 12:58:05
TRACK 05 AUDIO
TITLE "Passion To Ashes"
PERFORMER "Shark Island"
INDEX 00 17:35:32
INDEX 01 17:36:12
TRACK 06 AUDIO
TITLE "Spellbound"
PERFORMER "Shark Island"
INDEX 00 21:36:67
INDEX 01 21:37:47
TRACK 07 AUDIO
TITLE "Get Some Strange"
PERFORMER "Shark Island"
INDEX 00 24:51:65
INDEX 01 24:52:42
TRACK 08 AUDIO
TITLE "Why Should I Believe"
PERFORMER "Shark Island"
INDEX 00 29:03:25
INDEX 01 29:03:70
TRACK 09 AUDIO
TITLE "Ready Or Not"
PERFORMER "Shark Island"
INDEX 00 34:36:67
INDEX 01 34:37:62
TRACK 10 AUDIO
TITLE "The Chain"
PERFORMER "Shark Island"
INDEX 01 38:14:42
TRACK 11 AUDIO
TITLE "Make A Move (Live)"
PERFORMER "Shark Island"
INDEX 00 43:48:60
INDEX 01 43:49:37


"Лог"
Exact Audio Copy V0.99 prebeta 5 from 4. May 2009

EAC extraction logfile from 6. April 2010, 11:05

Shark Island / Law Of The Order [ESCA-5010]

Used drive : Optiarc DVD RW AD-7200A Adapter: 0 ID: 0

Read mode : Secure
Utilize accurate stream : Yes
Defeat audio cache : Yes
Make use of C2 pointers : No

Read offset correction : 48
Overread into Lead-In and Lead-Out : No
Fill up missing offset samples with silence : Yes
Delete leading and trailing silent blocks : No
Null samples used in CRC calculations : Yes
Used interface : Native Win32 interface for Win NT & 2000

Used output format : User Defined Encoder
Selected bitrate : 128 kBit/s
Quality : High
Add ID3 tag : No
Command line compressor : C:\Program Files\Exact Audio Copy\Flac\flac.exe
Additional command line options : -8 -V -T "artist=%a" -T "title=%t" -T "album=%g" -T "date=%y" -T "tracknumber=%n" -T "genre=%m" -T "comment=EAC 0.9beta4 / FLAC 1.1.0 q6" %s


TOC of the extracted CD

Track | Start | Length | Start sector | End sector
---------------------------------------------------------
1 | 0:00.00 | 4:52.15 | 0 | 21914
2 | 4:52.15 | 4:07.10 | 21915 | 40449
3 | 8:59.25 | 3:58.55 | 40450 | 58354
4 | 12:58.05 | 4:38.07 | 58355 | 79211
5 | 17:36.12 | 4:01.35 | 79212 | 97321
6 | 21:37.47 | 3:14.70 | 97322 | 111941
7 | 24:52.42 | 4:11.28 | 111942 | 130794
8 | 29:03.70 | 5:33.67 | 130795 | 155836
9 | 34:37.62 | 3:36.55 | 155837 | 172091
10 | 38:14.42 | 5:34.70 | 172092 | 197211
11 | 43:49.37 | 4:19.38 | 197212 | 216674


Range status and errors

Selected range

Filename Y:\Музыка\Shark Island\1989 Law Of The Order\Shark Island - Law Of The Order [ESCA-5010].wav

Peak level 97.7 %
Range quality 100.0 %
Copy CRC 2B22187C
Copy OK

No errors occurred

End of status report


Состав:
Richard Black: Vocals
Spencer Sercombe: Guitar and vocals
Chris Heilmann: Bass and vocals
Greg Ellis: Drums and percussion

Народ

_________________
Витасу до Даймонда как Алсу до Руссоса | При переразмещении - спрашивать разрешение!!


Top
 Profile  
 
 
PostPosted: 06 Apr 2010 
дядя Миша
User avatar
Joined: 17 Oct 2008
Posts: 3053
Lоcаtion: USSR
Age: 56
Name: Khy
:true: спасибо!


Top
 Profile  
 
 
PostPosted: 06 Apr 2010 
ыыыы
User avatar
Joined: 17 May 2009
Posts: 952
Lоcаtion: Пушкино, МО
Age: 39
Name: Дмитрий
На здоровье, дядь Миш!!! :true:

_________________
Витасу до Даймонда как Алсу до Руссоса | При переразмещении - спрашивать разрешение!!


Top
 Profile  
 
 
PostPosted: 06 Apr 2010 
Old Time Rock`n`Roll
User avatar
Joined: 23 Jun 2008
Posts: 3354
Lоcаtion: г.Ульяновск
Age: 40
Name: Константин
Спасибо за альбом, жаль без бонусов. Помнится они были весьма хороши.


Top
 Profile  
 
 
PostPosted: 06 Apr 2010 
хард н хэвщик (support team)
User avatar
Joined: 02 Jun 2008
Posts: 16880
Lоcаtion: Н.Новгород
Age: 31
Name: Артем
есть СД с бонусами , оформлять ?


Top
 Profile  
 
 
PostPosted: 06 Apr 2010 
Old Time Rock`n`Roll
User avatar
Joined: 23 Jun 2008
Posts: 3354
Lоcаtion: г.Ульяновск
Age: 40
Name: Константин
Да, Артем, это было бы здорово :thanx:


Top
 Profile  
 
 
PostPosted: 07 Apr 2010 
ыыыы
User avatar
Joined: 17 May 2009
Posts: 952
Lоcаtion: Пушкино, МО
Age: 39
Name: Дмитрий
на этом релизе бонус- последняя песня, как я понимаю :)

_________________
Витасу до Даймонда как Алсу до Руссоса | При переразмещении - спрашивать разрешение!!


Top
 Profile  
 
Display posts from previous:  Sort by  
Post new topic Reply to topic  [ 7 posts ] 

All times are UTC + 3 hours


Who is online

Users browsing this forum: No registered users and 2 guests


You cannot post new topics in this forum
You cannot reply to topics in this forum
You cannot edit your posts in this forum
You cannot delete your posts in this forum
You cannot post attachments in this forum

Search for:
Яндекс.Метрика
Powered by phpBB © 2000, 2002, 2005, 2007 phpBB Group