\m/ 80's metal \m/

Информационно-аналитический форум "80 см пыли" (In Search We Trust) "У нас никто никуда не спешит"
Me For You - http://me-4u.com
It is currently 25 Sep 2018

All times are UTC + 3 hours

Spoiler
Chat - temporary registration for foreign users (please leave your application here)







Post new topic Reply to topic  [ 4 posts ] 
Author Message
 
PostPosted: 31 Mar 2010 
ыыыы
User avatar
Joined: 17 May 2009
Posts: 952
Lоcаtion: Пушкино, МО
Age: 39
Name: Дмитрий
Image


Жанр: Hard Rock
Происхождение исполнителя: Германия
Год издания: 1993
Год издания данного носителя: 1993
Страна-производитель носителя: Япония
Аудио кодек: FLAC
Тип рипа: image+.cue
Битрейт аудио: lossless
Продолжительность: 55:10
Рип: Собственный
Лейбл: POLYGRAM/NIPPON PHONOGRAM
Каталоговый номер: PHCR-1218
Матрица: PHCR-1218-1P 13 V (JVC)

Треклист:
1. Alien Nation 05:44
2. No Pain, No Gain 03:55
3. Someone to Touch 04:29
4. Under the Same Sun 04:54
5. Unholy Alliance 05:17
6. Woman 05:57
7. Hate to Be Nice 04:34
8. Taxman Woman 04:30
9. Ship of Fools 04:16
10. Nightmare Avenue 03:55
11. Lonely Nights 04:51
12. Kami O Shin Jiru 03:50
13. Daddy's Girl 04:20

"Куй"
REM GENRE Rock
REM DATE 1993
REM DISCID 9B0DF20D
REM COMMENT "ExactAudioCopy v0.95b4"
CATALOG 0000000000000
PERFORMER "Scorpions"
TITLE "Face The Heat [PHCR-1218]"
FILE "Scorpions - Face The Heat [PHCR-1218].flac" WAVE
TRACK 01 AUDIO
TITLE "Alien Nation"
PERFORMER "Scorpions"
INDEX 00 00:00:00
INDEX 01 00:00:37
TRACK 02 AUDIO
TITLE "No Pain No Gain"
PERFORMER "Scorpions"
INDEX 01 05:44:37
TRACK 03 AUDIO
TITLE "Someone To Touch"
PERFORMER "Scorpions"
INDEX 00 09:38:71
INDEX 01 09:39:27
TRACK 04 AUDIO
TITLE "Under The Same Sun"
PERFORMER "Scorpions"
INDEX 01 14:08:05
TRACK 05 AUDIO
TITLE "Unholy Alliance"
PERFORMER "Scorpions"
INDEX 00 19:01:33
INDEX 01 19:01:60
TRACK 06 AUDIO
TITLE "Woman"
PERFORMER "Scorpions"
INDEX 00 24:19:01
INDEX 01 24:19:12
TRACK 07 AUDIO
TITLE "Hate To Be Nice"
PERFORMER "Scorpions"
INDEX 01 30:16:07
TRACK 08 AUDIO
TITLE "Taxman Woman"
PERFORMER "Scorpions"
INDEX 01 33:49:47
TRACK 09 AUDIO
TITLE "Ship Of Fools"
PERFORMER "Scorpions"
INDEX 00 38:19:51
INDEX 01 38:19:55
TRACK 10 AUDIO
TITLE "Nightmare Avenue"
PERFORMER "Scorpions"
INDEX 01 42:35:22
TRACK 11 AUDIO
TITLE "Lonely Nights"
PERFORMER "Scorpions"
INDEX 00 46:29:26
INDEX 01 46:30:02
TRACK 12 AUDIO
TITLE "Kami O Shin Jiru"
PERFORMER "Scorpions"
INDEX 00 51:19:53
INDEX 01 51:21:07
TRACK 13 AUDIO
TITLE "Daddy's Girl"
PERFORMER "Scorpions"
INDEX 00 55:10:51
INDEX 01 55:10:62


"Лог"
EAC extraction logfile from 20. November 2009, 21:42 for CD
Scorpions / Face The Heat [PHCR-1218]

Used drive : ASUS DRW-2014S1 Adapter: 0 ID: 0
Read mode : Secure with NO C2, accurate stream, disable cache
Read offset correction : 6
Overread into Lead-In and Lead-Out : No

Used output format : Internal WAV Routines
44.100 Hz; 16 Bit; Stereo

Other options :
Fill up missing offset samples with silence : Yes
Delete leading and trailing silent blocks : No
Installed external ASPI interface


Range status and errors
Selected range
Filename Y:\Музыка\Scorpions\1993 Face The Heat\Scorpions - Face The Heat [PHCR-1218].wav

Peak level 100.0 %
Range quality 100.0 %
CRC 83CC4F5B
Copy OK

No errors occured

End of status report


Состав:
Klaus Meine: Vocals
Matthias Jabbs: Guitar
Rudolf Schenker: Guitar
Ralph Rieckermann: Bass
Herman Rarebell: Drums

Megaupload
Фото
В куе поменяйте wav на flac :oops:

_________________
Витасу до Даймонда как Алсу до Руссоса | При переразмещении - спрашивать разрешение!!


Last edited by iezuit on 01 Apr 2010, edited 1 time in total.

Top
 Profile  
 
 
PostPosted: 31 Mar 2010 
HAMMER
User avatar
Joined: 16 May 2009
Posts: 5370
Lоcаtion: Тверь
Age: 45
Name: Александр
:thanx:


Top
 Profile E-mail  
 
 
PostPosted: 31 Mar 2010 
А может смените мне статус?..
User avatar
Joined: 24 Dec 2008
Posts: 615
Age: 44
Name: Дмитрий
Спасибо!


Top
 Profile  
 
 
PostPosted: 31 Mar 2010 
Анатолий
User avatar
Joined: 18 Oct 2008
Posts: 3119
Lоcаtion: Армавир
Age: 41
Name: Анатолий
Мда... сегодня просто лосепад какой-то!

iezuit

Спасибо!!! :thanx:


Top
 Profile E-mail  
 
Display posts from previous:  Sort by  
Post new topic Reply to topic  [ 4 posts ] 

All times are UTC + 3 hours


Who is online

Users browsing this forum: No registered users and 1 guest


You cannot post new topics in this forum
You cannot reply to topics in this forum
You cannot edit your posts in this forum
You cannot delete your posts in this forum
You cannot post attachments in this forum

Search for:
Яндекс.Метрика
Powered by phpBB © 2000, 2002, 2005, 2007 phpBB Group