\m/ 80's metal \m/

Информационно-аналитический форум "80 см пыли" (In Search We Trust) "У нас никто никуда не спешит"
Железнодорожная биржа - RailAgent
It is currently 23 Jul 2018

All times are UTC + 3 hours

Spoiler
Chat - temporary registration for foreign users (please leave your application here)







Post new topic Reply to topic  [ 7 posts ] 
Author Message
 
PostPosted: 31 Mar 2010 
ыыыы
User avatar
Joined: 17 May 2009
Posts: 952
Lоcаtion: Пушкино, МО
Age: 39
Name: Дмитрий
Image


Жанр: Hard Rock
Происхождение исполнителя: Германия
Год издания: 1975
Год издания данного носителя: 1989
Страна-производитель носителя: Япония
Аудио кодек: FLAC
Тип рипа: image+.cue
Битрейт аудио: lossless
Продолжительность: 37:22
Рип: Собственный
Лейбл: RCA/BMG/VICTOR
Каталоговый номер: B20D-41011
Матрица: R28P-1109-A2С 15 (JVC)

Треклист:
1. Dark Lady 03:30
2. In Trance 04:47
3. Life's Like A River 03:54
4. Top of the Bill 03:26
5. Living and Dying 03:25
6. Robot Man 02:48
7. Evening Wind 05:06
8. Sun In My Hand 04:26
9. Longing For Fire 02:45
10. Night Lights 03:15

"Куй"
REM DISCID 7E08C20A
REM COMMENT "ExactAudioCopy v0.95b4"
CATALOG 0000000000000
PERFORMER "SCORPIONS"
TITLE "IN TRANCE [B20D-41011]"
FILE "SCORPIONS - IN TRANCE [B20D-41011].flac" WAVE
TRACK 01 AUDIO
TITLE "Dark Lady"
PERFORMER "SCORPIONS"
INDEX 00 00:00:00
INDEX 01 00:00:37
TRACK 02 AUDIO
TITLE "In Trance"
PERFORMER "SCORPIONS"
INDEX 00 03:27:40
INDEX 01 03:30:42
TRACK 03 AUDIO
TITLE "Life's Like A River"
PERFORMER "SCORPIONS"
INDEX 00 08:14:55
INDEX 01 08:17:70
TRACK 04 AUDIO
TITLE "Top Of The Bill"
PERFORMER "SCORPIONS"
INDEX 00 12:08:00
INDEX 01 12:12:00
TRACK 05 AUDIO
TITLE "Living And Dying"
PERFORMER "SCORPIONS"
INDEX 00 15:38:22
INDEX 01 15:38:25
TRACK 06 AUDIO
TITLE "Robot Man"
PERFORMER "SCORPIONS"
INDEX 00 19:00:02
INDEX 01 19:03:00
TRACK 07 AUDIO
TITLE "Evening Wind"
PERFORMER "SCORPIONS"
INDEX 00 21:46:55
INDEX 01 21:50:45
TRACK 08 AUDIO
TITLE "Sun In My Hand"
PERFORMER "SCORPIONS"
INDEX 00 26:54:10
INDEX 01 26:56:67
TRACK 09 AUDIO
TITLE "Longing For Fire"
PERFORMER "SCORPIONS"
INDEX 00 31:19:60
INDEX 01 31:22:50
TRACK 10 AUDIO
TITLE "Night Lights"
PERFORMER "SCORPIONS"
INDEX 00 34:05:65
INDEX 01 34:07:40


"Лог"
EAC extraction logfile from 16. November 2009, 22:22 for CD
SCORPIONS / IN TRANCE [B20D-41011]

Used drive : ASUS DRW-2014S1 Adapter: 0 ID: 0
Read mode : Secure with NO C2, accurate stream, disable cache
Read offset correction : 6
Overread into Lead-In and Lead-Out : No

Used output format : Internal WAV Routines
44.100 Hz; 16 Bit; Stereo

Other options :
Fill up missing offset samples with silence : Yes
Delete leading and trailing silent blocks : No
Installed external ASPI interface


Range status and errors
Selected range
Filename Y:\Музыка\Scorpions\1975 In Trance\SCORPIONS - IN TRANCE [B20D-41011].wav

Peak level 99.8 %
Range quality 100.0 %
CRC 40538B86
Copy OK

No errors occured

End of status report


Состав:
Klaus Meine: Vocals
Ulrich Roth: Guitar
Rudolf Schenker: Guitar
Francis Buchholz: Bass
Rudy Lenners: Drums

Megaupload
Фото

_________________
Витасу до Даймонда как Алсу до Руссоса | При переразмещении - спрашивать разрешение!!


Last edited by iezuit on 01 Apr 2010, edited 1 time in total.

Top
 Profile  
 
 
PostPosted: 31 Mar 2010 
HAMMER
User avatar
Joined: 16 May 2009
Posts: 5333
Lоcаtion: Тверь
Age: 45
Name: Александр
:thanx:


Top
 Profile E-mail  
 
 
PostPosted: 31 Mar 2010 
Анатолий
User avatar
Joined: 18 Oct 2008
Posts: 3066
Lоcаtion: Армавир
Age: 41
Name: Анатолий
Нет... ну это кошмар какой-то!!! Когда всё это скачать то??? :shok: :nunu:

iezuit

И ещё раз СПАСИБИЩЕ!!! :thanx:


Top
 Profile E-mail  
 
 
PostPosted: 31 Mar 2010 
труъ антисионист
User avatar
Joined: 01 Aug 2007
Posts: 4541
Lоcаtion: Откуда и большинство из нас
Age: 37
Name: Дядя Вова
In Trance была первой песней Скорпов, которую я услышал :true:

_________________
Image
Image


Top
 Profile  
 
 
PostPosted: 31 Mar 2010 
ыыыы
User avatar
Joined: 17 May 2009
Posts: 952
Lоcаtion: Пушкино, МО
Age: 39
Name: Дмитрий
Glot
Как бразильцы, Вов? :smile:

_________________
Витасу до Даймонда как Алсу до Руссоса | При переразмещении - спрашивать разрешение!!


Top
 Profile  
 
 
PostPosted: 31 Mar 2010 
труъ антисионист
User avatar
Joined: 01 Aug 2007
Posts: 4541
Lоcаtion: Откуда и большинство из нас
Age: 37
Name: Дядя Вова
iezuit wrote:
Glot
Как бразильцы, Вов? :smile:

Рулят не по детски, вот только что посылку распечатал :crazy:

_________________
Image
Image


Top
 Profile  
 
 
PostPosted: 05 Sep 2010 
А может смените мне статус?..
User avatar
Joined: 24 Dec 2008
Posts: 608
Age: 44
Name: Дмитрий
Спасибо, упустил.


Top
 Profile  
 
Display posts from previous:  Sort by  
Post new topic Reply to topic  [ 7 posts ] 

All times are UTC + 3 hours


Who is online

Users browsing this forum: No registered users and 2 guests


You cannot post new topics in this forum
You cannot reply to topics in this forum
You cannot edit your posts in this forum
You cannot delete your posts in this forum
You cannot post attachments in this forum

Search for:
Яндекс.Метрика
cron
Powered by phpBB © 2000, 2002, 2005, 2007 phpBB Group