\m/ 80's metal \m/

Информационно-аналитический форум "80 см пыли" (In Search We Trust) "У нас никто никуда не спешит"
Железнодорожная биржа - RailAgent
It is currently 17 Jul 2018

All times are UTC + 3 hours

Spoiler
Chat - temporary registration for foreign users (please leave your application here)







Post new topic Reply to topic  [ 5 posts ] 
Author Message
 
PostPosted: 31 Mar 2010 
ыыыы
User avatar
Joined: 17 May 2009
Posts: 952
Lоcаtion: Пушкино, МО
Age: 39
Name: Дмитрий
Image


Жанр: Hard Rock
Происхождение исполнителя: Германия
Год издания: 1977
Год издания данного носителя: 1989
Страна-производитель носителя: Япония
Аудио кодек: FLAC
Тип рипа: image+.cue
Битрейт аудио: lossless
Продолжительность: 39:20
Рип: Собственный
Лейбл: RCA/BMG/VICTOR
Каталоговый номер: B20D-41013
Матрица: R28P-1111-A4D 11 V (JVC)

Треклист:
1. Steamrock Fever 03:42
2. We'll Burn the Sky 06:31
3. I've Got to Be Free 04:04
4. The Riot of Your Time 04:14
5. The Sails of Charon 05:16
6. Your Light 04:35
7. He's a Woman, She's a Man 03:18
8. Born to Touch Your Feelings 07:41

"Куй"
REM GENRE "Hard Rock"
REM DATE 1977
REM DISCID 56093808
REM COMMENT "ExactAudioCopy v0.95b4"
CATALOG 0000000000000
PERFORMER "SCORPIONS"
TITLE "TAKEN BY FORCE [B20D-41013]"
FILE "SCORPIONS - TAKEN BY FORCE [B20D-41013].flac" WAVE
TRACK 01 AUDIO
TITLE "Steamrock Fever"
PERFORMER "SCORPIONS"
INDEX 00 00:00:00
INDEX 01 00:00:37
TRACK 02 AUDIO
TITLE "We'll Burn The Sky"
PERFORMER "SCORPIONS"
INDEX 00 03:39:54
INDEX 01 03:42:00
TRACK 03 AUDIO
TITLE "I've Got To Be Free"
PERFORMER "SCORPIONS"
INDEX 00 10:10:36
INDEX 01 10:13:12
TRACK 04 AUDIO
TITLE "The Riot Of Your Time"
PERFORMER "SCORPIONS"
INDEX 00 14:15:09
INDEX 01 14:17:05
TRACK 05 AUDIO
TITLE "The Sails Of Charon"
PERFORMER "SCORPIONS"
INDEX 00 18:28:74
INDEX 01 18:30:50
TRACK 06 AUDIO
TITLE "Your Light"
PERFORMER "SCORPIONS"
INDEX 00 23:45:11
INDEX 01 23:46:45
TRACK 07 AUDIO
TITLE "He's A Woman-She's A Man"
PERFORMER "SCORPIONS"
INDEX 00 28:18:24
INDEX 01 28:21:25
TRACK 08 AUDIO
TITLE "Born To Touch Your Feeling"
PERFORMER "SCORPIONS"
INDEX 00 31:36:61
INDEX 01 31:39:00


"Лог"
EAC extraction logfile from 31. December 2009, 0:52 for CD
SCORPIONS / TAKEN BY FORCE [B20D-41013]

Used drive : ASUS DRW-2014S1 Adapter: 0 ID: 0
Read mode : Secure with NO C2, accurate stream, disable cache
Read offset correction : 6
Overread into Lead-In and Lead-Out : No

Used output format : Internal WAV Routines
44.100 Hz; 16 Bit; Stereo

Other options :
Fill up missing offset samples with silence : Yes
Delete leading and trailing silent blocks : No
Installed external ASPI interface


Range status and errors
Selected range
Filename Y:\Музыка\Scorpions\1977 Taken By Force\SCORPIONS - TAKEN BY FORCE [B20D-41013].wav

Peak level 99.6 %
Range quality 100.0 %
CRC BD04A838
Copy OK

No errors occured

End of status report


Состав:
Klaus Meine: Vocals
Ulrich Roth: Guitar
Rudolf Schenker: Guitar
Francis Buchholz: Bass
Herman Rarebel: Drums

Megaupload
Фото

_________________
Витасу до Даймонда как Алсу до Руссоса | При переразмещении - спрашивать разрешение!!


Last edited by iezuit on 01 Apr 2010, edited 1 time in total.

Top
 Profile  
 
 
PostPosted: 31 Mar 2010 
HAMMER
User avatar
Joined: 16 May 2009
Posts: 5325
Lоcаtion: Тверь
Age: 45
Name: Александр
:true: :thanx:


Top
 Profile E-mail  
 
 
PostPosted: 31 Mar 2010 
Прокъмитолист
User avatar
Joined: 12 Aug 2007
Posts: 6414
Lоcаtion: Санктъ-Петербуркъ
Age: 50
Name: Олекъ
iezuit wrote:
We'll Burn the Sky

:true: :true: :true:

_________________
прокъметол - это музыко, от которово есть прок (ы)


Top
 Profile  
 
 
PostPosted: 31 Mar 2010 
Анатолий
User avatar
Joined: 18 Oct 2008
Posts: 3059
Lоcаtion: Армавир
Age: 41
Name: Анатолий
Япона мать!!! Ну ни черта себе лосепроизводительность!!! :shok:

iezuit

Спасибо большое!!! :thanx:


Top
 Profile E-mail  
 
 
PostPosted: 05 Sep 2010 
А может смените мне статус?..
User avatar
Joined: 24 Dec 2008
Posts: 608
Age: 44
Name: Дмитрий
:dance:


Top
 Profile  
 
Display posts from previous:  Sort by  
Post new topic Reply to topic  [ 5 posts ] 

All times are UTC + 3 hours


Who is online

Users browsing this forum: No registered users and 3 guests


You cannot post new topics in this forum
You cannot reply to topics in this forum
You cannot edit your posts in this forum
You cannot delete your posts in this forum
You cannot post attachments in this forum

Search for:
Яндекс.Метрика
Powered by phpBB © 2000, 2002, 2005, 2007 phpBB Group