\m/ 80's metal \m/

Информационно-аналитический форум "80 см пыли" (In Search We Trust) "У нас никто никуда не спешит"
Железнодорожная биржа - RailAgent
It is currently 22 Jul 2018

All times are UTC + 3 hours

Spoiler
Chat - temporary registration for foreign users (please leave your application here)







Post new topic Reply to topic  [ 10 posts ] 
Author Message
 
PostPosted: 31 Mar 2010 
ыыыы
User avatar
Joined: 17 May 2009
Posts: 952
Lоcаtion: Пушкино, МО
Age: 39
Name: Дмитрий
Image


Жанр: Hard Rock
Происхождение исполнителя: Германия
Год издания: 1974
Год издания данного носителя: 1989
Страна-производитель носителя: Япония
Аудио кодек: FLAC
Тип рипа: image+.cue
Битрейт аудио: lossless
Продолжительность: 41:01
Рип: Собственный
Лейбл: RCA/BMG/VICTOR
Каталоговый номер: B20D-41010
Матрица: R28P-1108-A3D 22 V (JVC)

Треклист:
1. Speedy's Coming 03:39
2. They Need a Million 04:55
3. Drifting Sun 07:44
4. Fly People Fly 05:05
5. This Is My Song 04:17
6. Far Away 05:42
7. Fly to the Rainbow 09:39

"Куй"
REM DISCID 5C099D07
REM COMMENT "ExactAudioCopy v0.99pb5"
CATALOG 0000000000000
PERFORMER "Scorpions"
TITLE "Fly To The Rainbow [B20D-41010]"
FILE "Scorpions - Fly To The Rainbow [B20D-41010].flac" WAVE
TRACK 01 AUDIO
TITLE "Speedy's Coming"
PERFORMER "Scorpions"
INDEX 00 00:00:00
INDEX 01 00:00:37
TRACK 02 AUDIO
TITLE "They Need A Million"
PERFORMER "Scorpions"
INDEX 00 03:36:06
INDEX 01 03:39:17
TRACK 03 AUDIO
TITLE "Drifting Sun"
PERFORMER "Scorpions"
INDEX 00 08:30:43
INDEX 01 08:33:65
TRACK 04 AUDIO
TITLE "Fly People Fly"
PERFORMER "Scorpions"
INDEX 00 16:15:38
INDEX 01 16:17:70
TRACK 05 AUDIO
TITLE "This Is My Song"
PERFORMER "Scorpions"
INDEX 00 21:21:51
INDEX 01 21:23:25
TRACK 06 AUDIO
TITLE "Far Away"
PERFORMER "Scorpions"
INDEX 00 25:37:03
INDEX 01 25:40:42
TRACK 07 AUDIO
TITLE "Fly To The Rainbow"
PERFORMER "Scorpions"
INDEX 00 31:20:01
INDEX 01 31:22:25


"Лог"
Exact Audio Copy V0.99 prebeta 5 from 4. May 2009

Отчёт EAC об извлечении, выполненном 20. февраля 2010, 22:56

Scorpions / Fly To The Rainbow [B20D-41010]

Дисковод: ASUS DRW-2014S1 Adapter: 0 ID: 0

Режим чтения : Достоверность
Использование точного потока : Да
Отключение кэша аудио : Да
Использование указателей C2 : Нет

Коррекция смещения при чтении : 6
Способность читать области Lead-in и Lead-out : Нет
Заполнение пропущенных сэмплов тишиной : Да
Удаление блоков с тишиной в начале и конце : Нет
При вычислениях CRC использовались нулевые сэмплы : Да
Интерфейс : Установленный внешний ASPI-интерфейс

Выходной формат : Пользовательский кодировщик
Выбранный битрейт : 128 kBit/s
Качество : Высокий
Добавление ID3-тэга : Нет
Утилита сжатия : C:\Program Files\Exact Audio Copy\Flac\flac.exe
Дополнительные параметры : -6 -V -T "artist=%a" -T "title=%t" -T "album=%g" -T "date=%y" -T "tracknumber=%n" -T "genre=%m" -T "comment=EAC 0.99beta5 / FLAC 1.1.0 q6" %s


TOC извлечённого CD

Трек | Старт | Длительность | Начальный сектор | Конечный сектор
---------------------------------------------------------------------
1 | 0:00.37 | 3:38.55 | 37 | 16441
2 | 3:39.17 | 4:54.48 | 16442 | 38539
3 | 8:33.65 | 7:44.05 | 38540 | 73344
4 | 16:17.70 | 5:05.30 | 73345 | 96249
5 | 21:23.25 | 4:17.17 | 96250 | 115541
6 | 25:40.42 | 5:41.58 | 115542 | 141174
7 | 31:22.25 | 9:39.12 | 141175 | 184611


Характеристики диапазона извлечения и сообщения об ошибках

Выбранный диапазон

Имя файла Y:\Музыка\Scorpions\1974 Fly to the Rainbow\Scorpions - Fly To The Rainbow [B20D-41010].wav

Пиковый уровень 94.6 %
Качество диапазона 100.0 %
CRC копии 05BEB681
Копирование... OK

Ошибок не произошло


AccurateRip: сводка

Трек 1 нет в базе данных
Трек 2 нет в базе данных
Трек 3 нет в базе данных
Трек 4 нет в базе данных
Трек 5 нет в базе данных
Трек 6 нет в базе данных
Трек 7 нет в базе данных

Ни одного трека нет в базе AccurateRip

Конец отчёта


Состав:
Klaus Meine: Vocals
Ulrich Roth: Guitars
Rudolf Schenker: Guitars
Francis Buchholz: Bass
Jurgen Rosenthal: Drums

Megaupload
Фото

_________________
Витасу до Даймонда как Алсу до Руссоса | При переразмещении - спрашивать разрешение!!


Last edited by iezuit on 01 Apr 2010, edited 1 time in total.

Top
 Profile  
 
 
PostPosted: 31 Mar 2010 
Хиппей (support team)
User avatar
Joined: 30 Jul 2007
Posts: 105197
Lоcаtion: Киев (Kyiv, UA)
Age: 45
Name: Andrey
iezuit wrote:
Фото будут завтра

Брр, Дим, давай еще раз уточним - в основной архив ты фото не привык добавлять, так?... :scratch:

_________________


Top
 Profile E-mail  
 
 
PostPosted: 31 Mar 2010 
хард н хэвщик (support team)
User avatar
Joined: 02 Jun 2008
Posts: 16880
Lоcаtion: Н.Новгород
Age: 31
Name: Артем
iezuit wrote:
1. Speedy's Coming 03:39
3. Drifting Sun 07:44
5. This Is My Song 04:17

одни из любимых песен у скорпов :meloman:


Top
 Profile  
 
 
PostPosted: 31 Mar 2010 
ыыыы
User avatar
Joined: 17 May 2009
Posts: 952
Lоcаtion: Пушкино, МО
Age: 39
Name: Дмитрий
Scatterbrain
Ну разделять имеет смысл- кому-то только фотки надо посмотреть, ибо релизы не бог весть какие-то редкие.

_________________
Витасу до Даймонда как Алсу до Руссоса | При переразмещении - спрашивать разрешение!!


Top
 Profile  
 
 
PostPosted: 31 Mar 2010 
Хиппей (support team)
User avatar
Joined: 30 Jul 2007
Posts: 105197
Lоcаtion: Киев (Kyiv, UA)
Age: 45
Name: Andrey
iezuit wrote:
Ну разделять имеет смысл

Тьху... я думал ты в первую ссылку пихаешь как положено - лося, лог, куй, фотки. А второй ссылкой просто фотки дублируешь.
В общем, Дим, это не труъ, фотки через некоторое время удалят и тебя опять будут просить их залить :vic:

_________________


Top
 Profile E-mail  
 
 
PostPosted: 31 Mar 2010 
ыыыы
User avatar
Joined: 17 May 2009
Posts: 952
Lоcаtion: Пушкино, МО
Age: 39
Name: Дмитрий
учту :fingal:

_________________
Витасу до Даймонда как Алсу до Руссоса | При переразмещении - спрашивать разрешение!!


Top
 Profile  
 
 
PostPosted: 31 Mar 2010 
HAMMER
User avatar
Joined: 16 May 2009
Posts: 5330
Lоcаtion: Тверь
Age: 45
Name: Александр
:thanx:


Top
 Profile E-mail  
 
 
PostPosted: 31 Mar 2010 
ыыыы
User avatar
Joined: 17 May 2009
Posts: 952
Lоcаtion: Пушкино, МО
Age: 39
Name: Дмитрий
Molot
судя по номеру матрицы переиздания были сделаны с матриц первопрессов 88 года. Найти их сложновато, ну хоть так имеем ))

_________________
Витасу до Даймонда как Алсу до Руссоса | При переразмещении - спрашивать разрешение!!


Top
 Profile  
 
 
PostPosted: 31 Mar 2010 
Анатолий
User avatar
Joined: 18 Oct 2008
Posts: 3066
Lоcаtion: Армавир
Age: 41
Name: Анатолий
И ещё раз СПАСИБО! :thanx:


Top
 Profile E-mail  
 
 
PostPosted: 05 Sep 2010 
А может смените мне статус?..
User avatar
Joined: 24 Dec 2008
Posts: 608
Age: 44
Name: Дмитрий
Спасибо.


Top
 Profile  
 
Display posts from previous:  Sort by  
Post new topic Reply to topic  [ 10 posts ] 

All times are UTC + 3 hours


Who is online

Users browsing this forum: No registered users and 2 guests


You cannot post new topics in this forum
You cannot reply to topics in this forum
You cannot edit your posts in this forum
You cannot delete your posts in this forum
You cannot post attachments in this forum

Search for:
Яндекс.Метрика
Powered by phpBB © 2000, 2002, 2005, 2007 phpBB Group