\m/ 80's metal \m/

Информационно-аналитический форум "80 см пыли" (In Search We Trust) "У нас никто никуда не спешит"
Me For You - http://me-4u.com
It is currently 23 Sep 2018

All times are UTC + 3 hours

Spoiler
Chat - temporary registration for foreign users (please leave your application here)







Post new topic Reply to topic  [ 57 posts ]  Go to page 1, 2, 3  Next
Author Message
 
PostPosted: 31 Mar 2010 
ыыыы
User avatar
Joined: 17 May 2009
Posts: 952
Lоcаtion: Пушкино, МО
Age: 39
Name: Дмитрий
Image


Жанр: Heavy Metal
Происхождение исполнителя: Германия
Год издания: 1989
Год издания данного носителя: 1990
Страна-производитель носителя: Япония
Аудио кодек: FLAC
Тип рипа: image+.cue
Битрейт аудио: lossless
Продолжительность: 49:08
Рип: Собственный
Лейбл: NOISE/VICTOR
Каталоговый номер: VICP-8004
Матрица: VICP-8004-1-A1K 11 V (JVC)

Треклист:
1. The Law 04:19
2. Not Alone 03:53
3. Wonder 04:08
4. Buy or Die 05:01
5. Telemania 04:19
6. Touch the Light 05:01
7. Terminal Earth 03:53
8. From the Dust of Ages 09:22
9. The Challenge 04:36
10. L.A.D.Y. 04:35

"Куй"
REM GENRE Metal
REM DATE 1989
REM DISCID 780B840A
REM COMMENT "ExactAudioCopy v0.99pb5"
PERFORMER "Scanner"
TITLE "Terminal Earth [VICP-8004]"
FILE "Scanner - Terminal Earth [VICP-8004].flac" WAVE
TRACK 01 AUDIO
TITLE "The Law"
PERFORMER "Scanner"
INDEX 00 00:00:00
INDEX 01 00:00:37
TRACK 02 AUDIO
TITLE "Not Alone"
PERFORMER "Scanner"
INDEX 00 04:19:23
INDEX 01 04:19:35
TRACK 03 AUDIO
TITLE "Wonder"
PERFORMER "Scanner"
INDEX 00 08:11:55
INDEX 01 08:12:15
TRACK 04 AUDIO
TITLE "Buy Or Die"
PERFORMER "Scanner"
INDEX 00 12:20:20
INDEX 01 12:20:40
TRACK 05 AUDIO
TITLE "Telemania"
PERFORMER "Scanner"
INDEX 00 17:20:67
INDEX 01 17:21:15
TRACK 06 AUDIO
TITLE "Touch The Light"
PERFORMER "Scanner"
INDEX 01 21:40:02
TRACK 07 AUDIO
TITLE "Terminal Earth"
PERFORMER "Scanner"
INDEX 00 26:40:08
INDEX 01 26:40:42
TRACK 08 AUDIO
TITLE "From The Dust Of Ages"
PERFORMER "Scanner"
INDEX 00 30:33:13
INDEX 01 30:33:47
TRACK 09 AUDIO
TITLE "The Challenge"
PERFORMER "Scanner"
INDEX 00 39:54:39
INDEX 01 39:55:72
TRACK 10 AUDIO
TITLE "L.A.D.Y"
PERFORMER "Scanner"
INDEX 00 44:31:36
INDEX 01 44:31:72


"Лог"
Exact Audio Copy V0.99 prebeta 5 from 4. May 2009

EAC extraction logfile from 31. March 2010, 9:46

Scanner / Terminal Earth [VICP-8004]

Used drive : ASUS DRW-2014S1T Adapter: 1 ID: 1

Read mode : Secure
Utilize accurate stream : Yes
Defeat audio cache : Yes
Make use of C2 pointers : No

Read offset correction : 6
Overread into Lead-In and Lead-Out : No
Fill up missing offset samples with silence : Yes
Delete leading and trailing silent blocks : No
Null samples used in CRC calculations : Yes
Used interface : Installed external ASPI interface

Used output format : User Defined Encoder
Selected bitrate : 128 kBit/s
Quality : High
Add ID3 tag : No
Command line compressor : C:\Program Files\Exact Audio Copy\Flac\flac.exe
Additional command line options : -8 -V -T "artist=%a" -T "title=%t" -T "album=%g" -T "date=%y" -T "tracknumber=%n" -T "genre=%m" -T "comment=EAC 0.9beta4 / FLAC 1.1.0 q6" %s


TOC of the extracted CD

Track | Start | Length | Start sector | End sector
---------------------------------------------------------
1 | 0:00.37 | 4:18.73 | 37 | 19459
2 | 4:19.35 | 3:52.55 | 19460 | 36914
3 | 8:12.15 | 4:08.25 | 36915 | 55539
4 | 12:20.40 | 5:00.50 | 55540 | 78089
5 | 17:21.15 | 4:18.62 | 78090 | 97501
6 | 21:40.02 | 5:00.40 | 97502 | 120041
7 | 26:40.42 | 3:53.05 | 120042 | 137521
8 | 30:33.47 | 9:22.25 | 137522 | 179696
9 | 39:55.72 | 4:36.00 | 179697 | 200396
10 | 44:31.72 | 4:36.18 | 200397 | 221114


Range status and errors

Selected range

Filename Y:\Музыка\Scanner\1989 Terminal Earth\Scanner - Terminal Earth [VICP-8004].wav

Peak level 100.0 %
Range quality 100.0 %
Copy CRC D61FBD26
Copy OK

No errors occurred

End of status report


Состав:
S.L. Coe: Vocals
Axel Julius: Guitars
Tom Sopha: Guitars
Martin Bork: Bass
Wolfgang Kolorz: Drums

iFolder l Narod l M-Cloud

_________________
Витасу до Даймонда как Алсу до Руссоса | При переразмещении - спрашивать разрешение!!


Last edited by iezuit on 31 Mar 2010, edited 3 times in total.

Top
 Profile  
 
 
PostPosted: 31 Mar 2010 
Почётный металлург
User avatar
Joined: 15 Sep 2007
Posts: 4357
Lоcаtion: Хабаровск
Age: 58
Name: чуть выше
И за этот вельми благодарен!

_________________
Коль будешь людей ты ослами честить,
тебе человеком меж них не прослыть!
(Саади, персидский поэт, 13в.)


Top
 Profile  
 
 
PostPosted: 31 Mar 2010 
HAMMER
User avatar
Joined: 16 May 2009
Posts: 5367
Lоcаtion: Тверь
Age: 45
Name: Александр
:thanx: :true:


Top
 Profile E-mail  
 
 
PostPosted: 31 Mar 2010 
А может смените мне статус?..
User avatar
Joined: 24 Dec 2008
Posts: 615
Age: 44
Name: Дмитрий
Спасибо, этот тоже прихвачу.


Top
 Profile  
 
 
PostPosted: 02 Apr 2010 
Metal Collector
User avatar
Joined: 16 Nov 2008
Posts: 1225
Lоcаtion: Химки
Age: 35
Name: Андрей
Ваще кайф! Ранний Сканнер для меня самая настоящая ностальгия :oops:


Top
 Profile E-mail  
 
 
PostPosted: 02 Apr 2010 
Пионэръ
User avatar
Joined: 01 Feb 2009
Posts: 44
Lоcаtion: UA
Age: 29
Name: .
Премнго благодарен.... :gra:

_________________
We're pain, we're steel, a plot of knives, we're Transmaniacon MC.


Top
 Profile  
 
 
PostPosted: 16 Jul 2014 
Хиппей (support team)
User avatar
Joined: 30 Jul 2007
Posts: 106473
Lоcаtion: Киев (Kyiv, UA)
Age: 45
Name: Andrey
Scanner - 1989 - Terminal Earth [flac] by Revici - vinyl rip

mirror: Narod l M-Cloud

cue
REM DISCID 62095D08
REM DATE 1989
REM GENRE "Heavy Metal"
PERFORMER "Scanner"
TITLE "Terminal Earth"
FILE "Scanner - Terminal Earth.flac" WAVE
TRACK 01 AUDIO
TITLE "The Law"
PERFORMER "Scanner"
INDEX 01 00:00:00
TRACK 02 AUDIO
TITLE "Not Alone"
PERFORMER "Scanner"
INDEX 01 04:16:54
TRACK 03 AUDIO
TITLE "Wonder"
PERFORMER "Scanner"
INDEX 01 08:07:29
TRACK 04 AUDIO
TITLE "Buy Or Die"
PERFORMER "Scanner"
INDEX 01 12:13:72
TRACK 05 AUDIO
TITLE "Touch The Light"
PERFORMER "Scanner"
INDEX 01 17:12:61
TRACK 06 AUDIO
TITLE "Terminal Earth"
PERFORMER "Scanner"
INDEX 01 22:12:58
TRACK 07 AUDIO
TITLE "From The Dust Of Ages"
PERFORMER "Scanner"
INDEX 01 26:03:69
TRACK 08 AUDIO
TITLE "The Challenge"
PERFORMER "Scanner"
INDEX 01 35:22:63


Только начал слушать...

_________________


Top
 Profile E-mail  
 
 
PostPosted: 16 Jul 2014 
Alive Again
User avatar
Joined: 17 Dec 2008
Posts: 4681
Lоcаtion: Курск Воронеж Оскол
Age: 44
Name: Дмитрий
В то время один из самых любимых альбомов :cry:


Top
 Profile E-mail  
 
 
PostPosted: 16 Jul 2014 
Хиппей (support team)
User avatar
Joined: 30 Jul 2007
Posts: 106473
Lоcаtion: Киев (Kyiv, UA)
Age: 45
Name: Andrey
Я пока пару песен прослушал. Всё та же хэлловинщина :dance:
Вот только немного, вроде, иной вокал.

Завтра дослушаю Раз 5-6.
Начало и первый трэк показались очень знакомыми... :oops:

_________________


Top
 Profile E-mail  
 
 
PostPosted: 16 Jul 2014 
Power Metal Maniac
User avatar
Joined: 09 Aug 2008
Posts: 6303
Lоcаtion: Москва
Age: 40
Name: Егор
Андрей, евро-Павер не ограничивается только Хэлловином :dash: Да, они икона и канон, но Scanner, как уже справедливо заметили, довольно самобытная группа, со своими находками в стиле.

_________________
Long Live Metal!


Top
 Profile  
 
 
PostPosted: 16 Jul 2014 
Хиппей (support team)
User avatar
Joined: 30 Jul 2007
Posts: 106473
Lоcаtion: Киев (Kyiv, UA)
Age: 45
Name: Andrey
EG Power wrote:
но Scanner, как уже справедливо заметили, довольно самобытная группа, со своими находками в стиле.

Ну, пока я этого не заметил. Третий альбом послушаю, добавлю явно пару слов иных :pardon:

_________________


Top
 Profile E-mail  
 
 
PostPosted: 15 Jan 2016 
Я набрал 1000 сообщений!
Joined: 21 Nov 2009
Posts: 1394
Lоcаtion: praga
Age: 48
Name: Сергей
Можно попросить перезалить японца?Ссылка давно сдохла :thanx:


Top
 Profile E-mail  
 
 
PostPosted: 15 Jan 2016 
Я набрал 1000 сообщений!
Joined: 21 Nov 2009
Posts: 1394
Lоcаtion: praga
Age: 48
Name: Сергей
Андрюшкин у тебя явно ж есть рип. :benya:


Top
 Profile E-mail  
 
 
PostPosted: 15 Jan 2016 
\m/ 80 см сала \m/
User avatar
Joined: 12 Mar 2012
Posts: 2588
Age: 25
Name: Nick
Щаз перелью с рутра :kro:

_________________
1990 AUROPHON BRAINSTORM (Germany) - lossless
1994 MAUSOLEUM CLASSIX (Belgium-Germany) - lossless
1998 VA - GRIM HARVEST - Complete Metal Massacre Volumes I-XII


Top
 Profile  
 
 
PostPosted: 15 Jan 2016 
Я набрал 1000 сообщений!
Joined: 21 Nov 2009
Posts: 1394
Lоcаtion: praga
Age: 48
Name: Сергей
Щаз перелью с рутра :kro:

:thanx: но там вроде без книжечки,или это не тот рип?


Top
 Profile E-mail  
 
 
PostPosted: 15 Jan 2016 
\m/ 80 см сала \m/
User avatar
Joined: 12 Mar 2012
Posts: 2588
Age: 25
Name: Nick
Рип Илияна, сканы есть.
https://yadi.sk/mail/?hash=AMqUhr4Q8y4K ... jfPFc7Q%3D

_________________
1990 AUROPHON BRAINSTORM (Germany) - lossless
1994 MAUSOLEUM CLASSIX (Belgium-Germany) - lossless
1998 VA - GRIM HARVEST - Complete Metal Massacre Volumes I-XII


Top
 Profile  
 
 
PostPosted: 15 Jan 2016 
Я набрал 1000 сообщений!
Joined: 21 Nov 2009
Posts: 1394
Lоcаtion: praga
Age: 48
Name: Сергей
:dance: :meloman: :thanx:


Top
 Profile E-mail  
 
 
PostPosted: 15 Jan 2016 
Рарник и трушник
User avatar
Joined: 25 Dec 2009
Posts: 8063
Lоcаtion: Москва
Age: 53
Name: Виталий
Самый любимый и самый фартовый альбом!!! :true:


Top
 Profile  
 
 
PostPosted: 15 Jan 2016 
Я набрал 1000 сообщений!
Joined: 21 Nov 2009
Posts: 1394
Lоcаtion: praga
Age: 48
Name: Сергей
У менэ 1988 самый-самый.Кноблих дает жару. :dance: :true:


Top
 Profile E-mail  
 
 
PostPosted: 18 Jan 2016 
Я набрал 1000 сообщений!
Joined: 21 Nov 2009
Posts: 1394
Lоcаtion: praga
Age: 48
Name: Сергей
Любопытное переиздание 2013 года.Пожалуйста отпишитесь по звуку. :thanx:

http://rusfolder.com/44649896


Top
 Profile E-mail  
 
Display posts from previous:  Sort by  
Post new topic Reply to topic  [ 57 posts ]  Go to page 1, 2, 3  Next

All times are UTC + 3 hours


Who is online

Users browsing this forum: No registered users and 3 guests


You cannot post new topics in this forum
You cannot reply to topics in this forum
You cannot edit your posts in this forum
You cannot delete your posts in this forum
You cannot post attachments in this forum

Search for:
Яндекс.Метрика
Powered by phpBB © 2000, 2002, 2005, 2007 phpBB Group