\m/ 80's metal \m/

Информационно-аналитический форум "80 см пыли" (In Search We Trust) "У нас никто никуда не спешит"
Железнодорожная биржа - RailAgent
It is currently 23 Jul 2018

All times are UTC + 3 hours

Spoiler
Chat - temporary registration for foreign users (please leave your application here)







Post new topic Reply to topic  [ 128 posts ]  Go to page Previous  1, 2, 3, 4, 5, 6, 7  Next
Author Message
 
PostPosted: 31 Mar 2010 
ыыыы
User avatar
Joined: 17 May 2009
Posts: 952
Lоcаtion: Пушкино, МО
Age: 39
Name: Дмитрий
Image


Жанр: Heavy Metal
Происхождение исполнителя: Германия
Год издания: 1988
Год издания данного носителя: 1990
Страна-производитель носителя: Япония
Аудио кодек: FLAC
Тип рипа: image+.cue
Битрейт аудио: lossless
Продолжительность: 46:31
Рип: Собственный
Лейбл: NOISE/VICTOR
Каталоговый номер: VICP-8010
Матрица: VICP-8010-1-A1D 11 V (JVC)

Треклист:
1. Warp 7 04:29
2. Terrion 04:54
3. Locked Out 06:26
4. Across the Universe 03:52
5. R.M.U. 05:48
6. Grapes of Fear 03:57
7. Retaliation Positive 04:27
8. Killing Fields 04:24
9. Wizard Force 04:28
10. Galactos 03:46


"Куй"
REM GENRE "Heavy Metal"
REM DATE 1988
REM DISCID 8C0AE70A
REM COMMENT "ExactAudioCopy v0.99pb5"
PERFORMER "Scanner"
TITLE "Hypertrace [VICP-8010]"
FILE "Scanner - Hypertrace [VICP-8010].flac" WAVE
TRACK 01 AUDIO
TITLE "Warp 7"
PERFORMER "Scanner"
INDEX 00 00:00:00
INDEX 01 00:00:37
TRACK 02 AUDIO
TITLE "Terrion"
PERFORMER "Scanner"
INDEX 00 04:29:20
INDEX 01 04:29:67
TRACK 03 AUDIO
TITLE "Locked Out"
PERFORMER "Scanner"
INDEX 00 09:22:11
INDEX 01 09:23:52
TRACK 04 AUDIO
TITLE "Across the Universe"
PERFORMER "Scanner"
INDEX 00 15:48:23
INDEX 01 15:49:25
TRACK 05 AUDIO
TITLE "R. M. U."
PERFORMER "Scanner"
INDEX 00 19:39:45
INDEX 01 19:41:62
TRACK 06 AUDIO
TITLE "Grapes of Fear"
PERFORMER "Scanner"
INDEX 00 25:29:04
INDEX 01 25:29:72
TRACK 07 AUDIO
TITLE "Retaliation Positive"
PERFORMER "Scanner"
INDEX 00 29:26:43
INDEX 01 29:26:60
TRACK 08 AUDIO
TITLE "Killing Fields"
PERFORMER "Scanner"
INDEX 00 33:52:67
INDEX 01 33:53:57
TRACK 09 AUDIO
TITLE "Wizard Force"
PERFORMER "Scanner"
INDEX 00 38:17:26
INDEX 01 38:17:37
TRACK 10 AUDIO
TITLE "Galactos"
PERFORMER "Scanner"
INDEX 00 42:44:11
INDEX 01 42:45:52


"Лог"
Exact Audio Copy V0.99 prebeta 5 from 4. May 2009

EAC extraction logfile from 31. March 2010, 9:31

Scanner / Hypertrace [VICP-8010]

Used drive : ASUS DRW-2014S1T Adapter: 1 ID: 1

Read mode : Secure
Utilize accurate stream : Yes
Defeat audio cache : Yes
Make use of C2 pointers : No

Read offset correction : 6
Overread into Lead-In and Lead-Out : No
Fill up missing offset samples with silence : Yes
Delete leading and trailing silent blocks : No
Null samples used in CRC calculations : Yes
Used interface : Installed external ASPI interface

Used output format : User Defined Encoder
Selected bitrate : 128 kBit/s
Quality : High
Add ID3 tag : No
Command line compressor : C:\Program Files\Exact Audio Copy\Flac\flac.exe
Additional command line options : -8 -V -T "artist=%a" -T "title=%t" -T "album=%g" -T "date=%y" -T "tracknumber=%n" -T "genre=%m" -T "comment=EAC 0.9beta4 / FLAC 1.1.0 q6" %s


TOC of the extracted CD

Track | Start | Length | Start sector | End sector
---------------------------------------------------------
1 | 0:00.37 | 4:29.30 | 37 | 20241
2 | 4:29.67 | 4:53.60 | 20242 | 42276
3 | 9:23.52 | 6:25.48 | 42277 | 71199
4 | 15:49.25 | 3:52.37 | 71200 | 88636
5 | 19:41.62 | 5:48.10 | 88637 | 114746
6 | 25:29.72 | 3:56.63 | 114747 | 132509
7 | 29:26.60 | 4:26.72 | 132510 | 152531
8 | 33:53.57 | 4:23.55 | 152532 | 172311
9 | 38:17.37 | 4:28.15 | 172312 | 192426
10 | 42:45.52 | 3:45.53 | 192427 | 209354


Range status and errors

Selected range

Filename Y:\Музыка\Scanner\1988 Hypertrace\Scanner - Hypertrace [VICP-8010].wav

Peak level 100.0 %
Range quality 100.0 %
Copy CRC 388C39E1
Copy OK

No errors occurred

End of status report


Состав:
Michael Knoblich: Vocals
Axel Julius: Guitar
Tom Sopha: Guitar
Martin Bork: Bass
Wolfgang Kolorz: Drums

Narod.Ru
Фото

_________________
Витасу до Даймонда как Алсу до Руссоса | При переразмещении - спрашивать разрешение!!


Last edited by iezuit on 31 Mar 2010, edited 1 time in total.

Top
 Profile  
 
 
PostPosted: 01 Aug 2013 
Хиппей (support team)
User avatar
Joined: 30 Jul 2007
Posts: 105211
Lоcаtion: Киев (Kyiv, UA)
Age: 45
Name: Andrey
Ну вот возьми и послушай тогда следующий за ним "Terminal Earth" 1989 года, с вокалистом Angel Dust. По мне так он вполне самобытный.

Ого... они еще и вокалистов меняли :shok:

_________________


Top
 Profile E-mail  
 
 
PostPosted: 01 Aug 2013 
Power Metal Maniac
User avatar
Joined: 09 Aug 2008
Posts: 6197
Lоcаtion: Москва
Age: 40
Name: Егор
Лидер группы Axel Julius вообще меняд составы только так, часто полностью.

_________________
Long Live Metal!


Top
 Profile  
 
 
PostPosted: 02 Aug 2013 
Metal Collector
User avatar
Joined: 16 Nov 2008
Posts: 1217
Lоcаtion: Химки
Age: 35
Name: Андрей
Андрюх, у них на 5 альбомов 4 разных вокалиста было... Сейчас вон новый альбом (шестой) готовят к выходу осенью - на нём будет пятый по счёту вокалист.

http://www.metal-archives.com/~metalarc ... =1&t=99791


Top
 Profile E-mail  
 
 
PostPosted: 02 Aug 2013 
Рарник и трушник
User avatar
Joined: 25 Dec 2009
Posts: 7859
Lоcаtion: Москва
Age: 52
Name: Виталий
Scatterbrain wrote:
И шо я слышу? Откровенная клонятина Хэллов, хоть и всё профессионально и идеально спето, записано, сыграно и так далее. Да, я именно по вокалу и отличу эти две группы. Но, едрить, где же своя ну хоть на капельку оригинальная музыка у этой группы?

Андрюх, ты меня удивляешь! :umnik: Ну нашел, к чему прицепиться. :benya: Они ж с Хеллами нога в ногу шли, и на одном лейбле. Ты просто не очень любишь, павер, как я понял. :benya: А я вот например, собирал такие группы, как жемчужины в коллекции. :benya: А самобытность-то как раз и заключается в том, что люди разные, песни разные, саунд разный (Хеллы всегда были грязноватыми, кашеобразными и плосковатыми, к примеру). :pardon: Если отбросить группы первого эшелона, то Сканнер в СССР по популярности уступал тока MP (Metal Priests), но это уже другая история. Конечно, через 25 лет можно сказать, типа клон, а тогда мы об этом как-то не задумывались, а просто любили группу. :benya:


Top
 Profile  
 
 
PostPosted: 02 Aug 2013 
Metal Collector
User avatar
Joined: 16 Nov 2008
Posts: 1217
Lоcаtion: Химки
Age: 35
Name: Андрей
Я, когда в 90-х стал слушать павер и хэви, да и вообще металл, Хэллов услышал ранее. И не сказал бы, что прям стал фанатом (ну кроме Walls Of Jericho конечно). К Киперам всегда относился спокойно как к хорошему паверу. Так вот Scanner для меня тогда стал просто открытием, особенно Hypertrace! Хэллы на их фоне выглядели бледно.


Top
 Profile E-mail  
 
 
PostPosted: 05 Aug 2013 
Хиппей (support team)
User avatar
Joined: 30 Jul 2007
Posts: 105211
Lоcаtion: Киев (Kyiv, UA)
Age: 45
Name: Andrey
Terrion wrote:
у них на 5 альбомов 4 разных вокалиста было...

О как..

_________________


Top
 Profile E-mail  
 
 
PostPosted: 05 Aug 2013 
Хиппей (support team)
User avatar
Joined: 30 Jul 2007
Posts: 105211
Lоcаtion: Киев (Kyiv, UA)
Age: 45
Name: Andrey
Vitaly65 wrote:
Если отбросить группы первого эшелона, то Сканнер в СССР по популярности уступал тока MP (Metal Priests),

Ну.. это смотря в каком уголке СССР. Я их до сих пор с.. Sinner путаю :crazy:

_________________


Top
 Profile E-mail  
 
 
PostPosted: 05 Aug 2013 
Рарник и трушник
User avatar
Joined: 25 Dec 2009
Posts: 7859
Lоcаtion: Москва
Age: 52
Name: Виталий
Scatterbrain wrote:
Я их до сих пор с.. Sinner путаю :crazy:


А и ничого, я тож иногда Болтровер с Тундерболтом путаю, а Тундершторм с Тундрой. :benya: А Тундерхед с Майшинхедом. :benya:


Top
 Profile  
 
 
PostPosted: 16 Jul 2014 
Хиппей (support team)
User avatar
Joined: 30 Jul 2007
Posts: 105211
Lоcаtion: Киев (Kyiv, UA)
Age: 45
Name: Andrey
Зачем-то сюда пригвоздю винил-рип от Ревичи :vic:

Scanner - 1988 - Hypertrace [flac] by Revici - vinyl rip

mirror: Narod l M-Cloud

Или отдельной темой его? :fingal:

PS. Ну и еще несколько раз послушал альбом.
По ходу слушания зашёл старый знакомый, который как и я в 80-90-х обожал Хэлловин, но затем перестал за ними следить и понятно что первые слова были: "Шо, "Тыквы" очередной новый альбом издали"?
Я даже не стал называть ему имя группы. Смысла нет.
Шаблон. Хороший, отменный. Качественная копия шаблона.

cue
REM DISCID 6508DA08
REM GENRE "Heavy Metal"
REM DATE 1988
PERFORMER "Scanner"
TITLE "Hypertrace"
FILE "Scanner - Hypertrace.flac" WAVE
TRACK 01 AUDIO
TITLE "Warp"
PERFORMER "Scanner"
INDEX 01 00:00:00
TRACK 02 AUDIO
TITLE "Terrion"
PERFORMER "Scanner"
INDEX 01 04:26:02
TRACK 03 AUDIO
TITLE "Locked Out"
PERFORMER "Scanner"
INDEX 01 09:16:60
TRACK 04 AUDIO
TITLE "Across The Universe"
PERFORMER "Scanner"
INDEX 01 15:38:40
TRACK 05 AUDIO
TITLE "R.M.U."
PERFORMER "Scanner"
INDEX 01 19:26:57
TRACK 06 AUDIO
TITLE "Grapes Of Fear"
PERFORMER "Scanner"
INDEX 01 25:11:58
TRACK 07 AUDIO
TITLE "Retaliation Positive"
PERFORMER "Scanner"
INDEX 01 29:07:07
TRACK 08 AUDIO
TITLE "Killing Fields"
PERFORMER "Scanner"
INDEX 01 33:30:45

_________________


Top
 Profile E-mail  
 
 
PostPosted: 16 Jul 2014 
Alive Again
User avatar
Joined: 17 Dec 2008
Posts: 4580
Lоcаtion: Курск Воронеж Оскол
Age: 43
Name: Дмитрий
Нет не шаблон, по впечатлениям конца 80х вполне самобытный и интересный, сильно закрутил в то время, соответственно лет 20 не включал, но отлично помню, пора бы переслушать :meloman:


Top
 Profile E-mail  
 
 
PostPosted: 16 Jul 2014 
Хиппей (support team)
User avatar
Joined: 30 Jul 2007
Posts: 105211
Lоcаtion: Киев (Kyiv, UA)
Age: 45
Name: Andrey
Дим, а вот в чём отличие у этого альбома от Helloween 90 года, например? :lloo:
В плане музыки и вокала.
Ну и Gamma Ray 90-го года.
Или Angra 93 года.
Ну и так могу назвать еще несколько десятков альбомов.

_________________


Top
 Profile E-mail  
 
 
PostPosted: 16 Jul 2014 
Power Metal Maniac
User avatar
Joined: 09 Aug 2008
Posts: 6197
Lоcаtion: Москва
Age: 40
Name: Егор
C Angra вообще ничего общего, даже Power совсем разный: Разве Melodic Power Metal похож на Sympho Prog Power??
С Helloween (только в 1990 у них альбомов не было) и Gamma Ray сходства больше, но перепутать их или сказать, что они очень похожи я никак не могу. Никогда не перепутаю.

_________________
Long Live Metal!


Top
 Profile  
 
 
PostPosted: 16 Jul 2014 
Хиппей (support team)
User avatar
Joined: 30 Jul 2007
Posts: 105211
Lоcаtion: Киев (Kyiv, UA)
Age: 45
Name: Andrey
Егор, ну ты не перепутаешь, потому как слышал все альбомы перечисленных групп. А такому как я, например, и группа Sinner покажется очень похожей на Хэлловин.

По поводу "никогда не перепутаю" не спеши говорить утвердительно. Я для тебя и Толика готовлю давно сюрприз. Толику по голосу Байфорда, которого он так же ни с кем не спутает :crazy: , а тебе по группе Artillery, например =)

_________________


Top
 Profile E-mail  
 
 
PostPosted: 16 Jul 2014 
Хиппей (support team)
User avatar
Joined: 30 Jul 2007
Posts: 105211
Lоcаtion: Киев (Kyiv, UA)
Age: 45
Name: Andrey
EG Power wrote:
C Angra вообще ничего общего, даже Power совсем разный

Пробуем не смотреть на видео

_________________


Top
 Profile E-mail  
 
 
PostPosted: 17 Jul 2014 
Хиппей (support team)
User avatar
Joined: 30 Jul 2007
Posts: 105211
Lоcаtion: Киев (Kyiv, UA)
Age: 45
Name: Andrey
Ага, еще вот такой вариант может быть - я могу путать Ангру с Вайпером, например.
Но играют то обе группы в единой стилистике и чуть ли не каверистике. Правильно, имя им "Легион хелоклоновинов" :lloo:

И еще немного Южной Америки

_________________


Top
 Profile E-mail  
 
 
PostPosted: 17 Jul 2014 
HAMMER
User avatar
Joined: 16 May 2009
Posts: 5333
Lоcаtion: Тверь
Age: 45
Name: Александр
Scatterbrain wrote:
Но играют то обе группы в единой стилистике и чуть ли не каверистике.


Ну так Андре Матос и там и там.


Top
 Profile E-mail  
 
 
PostPosted: 17 Jul 2014 
Power Metal Maniac
User avatar
Joined: 09 Aug 2008
Posts: 6197
Lоcаtion: Москва
Age: 40
Name: Егор
Андрей, я никак не смогу перепутать Angra, Viper, Helloween и Scanner. Во-первых, я хорошо знаю их творчество, во-вторых вокал Матоса имеет специфические, присущие только ему, особенности (уже неоднократно это обсуждали), в третьих - и музыка-то разная.

_________________
Long Live Metal!


Top
 Profile  
 
 
PostPosted: 18 Jul 2014 
Хиппей (support team)
User avatar
Joined: 30 Jul 2007
Posts: 105211
Lоcаtion: Киев (Kyiv, UA)
Age: 45
Name: Andrey
Scatterbrain wrote:
Но играют то обе группы в единой стилистике и чуть ли не каверистике.


Ну так Андре Матос и там и там.

Угу. Но Егор отличит обе группы даже без вокала. Скорее всего =)

_________________


Top
 Profile E-mail  
 
 
PostPosted: 18 Jul 2014 
Metal Collector
User avatar
Joined: 16 Nov 2008
Posts: 1217
Lоcаtion: Химки
Age: 35
Name: Андрей
Я бы отличил ) И тоже считаю, что Сканнер ни хрена не похожи на Хэллов. Эта тема из разряда "все китайцы на одно лицо", пока не начнёшь к ним присматриваться ;)


Top
 Profile E-mail  
 
 
PostPosted: 18 Jul 2014 
Хиппей (support team)
User avatar
Joined: 30 Jul 2007
Posts: 105211
Lоcаtion: Киев (Kyiv, UA)
Age: 45
Name: Andrey
Но ведь более чем похожи :pardon:
И музыка и манера пения.
Разве не так?

Можно довести до абсурда и сказать что "вся это ваша Металлика сплошной грохот и вой", но я ведь привожу конкретные примеры и стараюсь не обидеть поклонников этих групп (да и я их творчество сам обожаю), а показать, как же они схожи между собой и "папа" у них один - германский Хэлловин.

http://www.lastfm.ru/music/Helloween/+similar Вот здеся с десятка два точно клонов есть. Остальные так, по стилистике лишь подходят.

_________________


Top
 Profile E-mail  
 
Display posts from previous:  Sort by  
Post new topic Reply to topic  [ 128 posts ]  Go to page Previous  1, 2, 3, 4, 5, 6, 7  Next

All times are UTC + 3 hours


Who is online

Users browsing this forum: No registered users and 2 guests


You cannot post new topics in this forum
You cannot reply to topics in this forum
You cannot edit your posts in this forum
You cannot delete your posts in this forum
You cannot post attachments in this forum

Search for:
Яндекс.Метрика
Powered by phpBB © 2000, 2002, 2005, 2007 phpBB Group