\m/ 80's metal \m/

Информационно-аналитический форум "80 см пыли" (In Search We Trust) "У нас никто никуда не спешит"
Me For You - http://me-4u.com
It is currently 22 Sep 2018

All times are UTC + 3 hours

Spoiler
Chat - temporary registration for foreign users (please leave your application here)







Post new topic Reply to topic  [ 4 posts ] 
Author Message
 
PostPosted: 28 Mar 2010 
Old Time Rock`n`Roll
User avatar
Joined: 23 Jun 2008
Posts: 3354
Lоcаtion: г.Ульяновск
Age: 40
Name: Константин
Shok Paris – Steel And Starlight (1987)

Image

Year: 1987
Style: Heavy Metal
Country: USA
Format: APE + log + cue + scans & mp3-320
Size: 305 Mb + 108 Mb

Tracklist
01. Go Down Fighting (4:48)
02. Steel And Starlight (3:43)
03. Tokyo Rose (4:39)
04. Rocked Outta Love (2:55)
05. Castle Walls (5:49)
06. On Your Feet (3:59)
07. Fallin' For You (4:31)
08. Exhibit "A" (3:50)
09. Lost Queen (4:00)
10. Hot On Your Heels (4:11)
11. Streets Of Pleasure [CD Bonus Track] (4:44)

TPT – 46:28

Line-Up
Eric Marderwald - Guitar, Backing Vocals
Jan Roll - Drums
Kel Berkshire - Bass, Backing Vocals
Ken Erb - Guitar, Backing Vocals
Vic Hix - Vocals

Album Credits:
Produced: Denny Nowak/Bill Peters
Mixed: Roger Hiess

Album Credits:
Executive Producer: Bill Peters
Front Cover: Eric Apel
Logo: Sean Rogers
Album Design: Bill Peters

Log
EAC extraction logfile from 6. July 2007, 23:54 for CD
Shok Paris / Steel And Starlight

Used drive : PLEXTOR CD-R PREMIUM Adapter: 1 ID: 0
Read mode : Secure with NO C2, accurate stream, disable cache
Read offset correction : 30
Overread into Lead-In and Lead-Out : No

Used output format : C:\Programmi\Exact Audio Copy\MAC.EXE (Monkey's Audio Lossless Encoder)
High Lossless Compression

Other options :
Fill up missing offset samples with silence : Yes
Delete leading and trailing silent blocks : No
Native Win32 interface for Win NT & 2000


Range status and errors
Selected range
Filename C:\Documents and Settings\oem\Documenti\Shok Paris - Steel And Starlight\Shok Paris - Steel And Starlight.wav.wav

Peak level 100.0 %
Range quality 100.0 %
CRC 518007FD
Copy OK

No errors occured

End of status report


Cue
REM DISCID A70AE30B
REM COMMENT "ExactAudioCopy v0.95b4"
PERFORMER "Shok Paris"
TITLE "Steel And Starlight"
FILE "Shok Paris - Steel And Starlight.wav" WAVE
TRACK 01 AUDIO
TITLE "Go Down Fighting"
PERFORMER "Shok Paris"
INDEX 01 00:00:00
TRACK 02 AUDIO
TITLE "Steel And Starlight"
PERFORMER "Shok Paris"
INDEX 01 04:48:17
TRACK 03 AUDIO
TITLE "Tokyo Rose"
PERFORMER "Shok Paris"
INDEX 00 08:29:37
INDEX 01 08:31:25
TRACK 04 AUDIO
TITLE "Rocked Outta Love"
PERFORMER "Shok Paris"
INDEX 00 13:09:25
INDEX 01 13:10:65
TRACK 05 AUDIO
TITLE "Castle Walls"
PERFORMER "Shok Paris"
INDEX 00 16:04:70
INDEX 01 16:06:05
TRACK 06 AUDIO
TITLE "On Your Feet"
PERFORMER "Shok Paris"
INDEX 00 21:54:37
INDEX 01 21:55:25
TRACK 07 AUDIO
TITLE "Fallin' For You"
PERFORMER "Shok Paris"
INDEX 00 25:53:50
INDEX 01 25:54:50
TRACK 08 AUDIO
TITLE "Exhibit A"
PERFORMER "Shok Paris"
INDEX 00 30:26:07
INDEX 01 30:26:32
TRACK 09 AUDIO
TITLE "Lost Queen"
PERFORMER "Shok Paris"
INDEX 00 34:17:00
INDEX 01 34:17:17
TRACK 10 AUDIO
TITLE "Hot On Your Heels"
PERFORMER "Shok Paris"
INDEX 00 38:15:67
INDEX 01 38:17:42
TRACK 11 AUDIO
TITLE "Streets Of Pleasure"
PERFORMER "Shok Paris"
INDEX 00 42:16:07
INDEX 01 42:16:25


APE
megaupload-APE
narod-APE

mp3-320
narod-320

Рип с MMT, автор – rockberto
2-й альбом коллектива из Кливленда, 2 вещи (Go Down Fighting и On Your Feet) попали в саундтрек фантастического боевика Нечто скрытое (The Hidden, 1987). Отличный фильм – отличный хэви. :dance:

Image

Состав 1984 г.


Top
 Profile  
 
 
PostPosted: 28 Mar 2010 
А может смените мне статус?..
User avatar
Joined: 24 Dec 2008
Posts: 615
Age: 44
Name: Дмитрий
Великолепный альбом! :true:


Top
 Profile  
 
 
PostPosted: 28 Mar 2010 
Я набрал 1000 сообщений!
User avatar
Joined: 25 Dec 2008
Posts: 1545
Age: 43
Name: Павел
Классика пауэра! :true:
Кстати,в прошлом году они собрались снова и записывают новый альбом для Auburn records.


Top
 Profile  
 
 
PostPosted: 29 Mar 2010 
Почётный металлург
User avatar
Joined: 15 Sep 2007
Posts: 4357
Lоcаtion: Хабаровск
Age: 58
Name: чуть выше
Спасибо, Костя!

_________________
Коль будешь людей ты ослами честить,
тебе человеком меж них не прослыть!
(Саади, персидский поэт, 13в.)


Top
 Profile  
 
Display posts from previous:  Sort by  
Post new topic Reply to topic  [ 4 posts ] 

All times are UTC + 3 hours


Who is online

Users browsing this forum: No registered users and 1 guest


You cannot post new topics in this forum
You cannot reply to topics in this forum
You cannot edit your posts in this forum
You cannot delete your posts in this forum
You cannot post attachments in this forum

Search for:
Яндекс.Метрика
Powered by phpBB © 2000, 2002, 2005, 2007 phpBB Group