\m/ 80's metal \m/

Информационно-аналитический форум "80 см пыли" (In Search We Trust) "У нас никто никуда не спешит"
Me For You - http://me-4u.com
It is currently 21 Sep 2018

All times are UTC + 3 hours

Spoiler
Chat - temporary registration for foreign users (please leave your application here)







Post new topic Reply to topic  [ 8 posts ] 
Author Message
 
PostPosted: 08 Mar 2010 
metallpaparazzy
User avatar
Joined: 20 Dec 2009
Posts: 674
Lоcаtion: Днепропетровск
Age: 43
Name: Геннадий
Image

Full-length, Atlantic
August 15th, 1994

Line-up :

Zachary Stevens - Vocals
Alex Skolnick - Guitar
Johnny Lee Middleton - Bass
Steve Wacholz - Drums

1. Taunting Cobras 03:21
2. Handful of Rain 05:25
3. Chance 07:50
4. Stare Into the Sun 04:43
5. Castles Burning 04:39
6. Visions 01:25
7. Watching You Fall 05:20
8. Nothing's Going On 04:09
9. Symmetry 05:04
10. Alone You Breathe 07:30

Total playing time 49:26

log
Отчёт EAC об извлечении, выполненном 20. февраля 2010, 0:58 для диска:
Savatage / Handful of Rain

Дисковод: Optiarc DVD RW AD-7170S Adapter: 1 ID: 1
Режим чтения: Достоверный (C2: нет, Точный поток: да, Отключение кэша: да)
Коррекция смещения при чтении: 48
Способность читать области Lead-in и Lead-out : Нет

Выходной формат: Внутренние WAV-операции
44.100 Гц; 16 бит; стерео

Другие параметры:
Заполнение пропущенных сэмплов тишиной : Да
Удаление блоков с тишиной в начале и конце : Нет
Установленный внешний ASPI-интерфейс


Характеристики диапазона извлечения и сообщения об ошибках
Выбранный диапазон
Имя файла C:\Documents and Settings\Admin\Рабочий стол\ЛОСИНАЯ ФЕРМА\SAVATAGE 1994 (FLAC)\Savatage - Handful of Rain .wav

Пиковый уровень 100.0 %
Качество диапазона 99.9 %
CRC F5BAFB0A
Копирование... OK

Ошибок не произошло

Конец отчёта


cue
REM GENRE Metal
REM DATE 1994
REM DISCID 8C0B950A
REM COMMENT "ExactAudioCopy v0.95b4"
PERFORMER "Savatage"
TITLE "Handful of Rain "
FILE "Savatage - Handful of Rain .wav" WAVE
TRACK 01 AUDIO
TITLE "Taunting Cobras "
PERFORMER "Savatage"
INDEX 01 00:00:00
TRACK 02 AUDIO
TITLE "Handful of Rain"
PERFORMER "Savatage"
INDEX 01 03:22:53
TRACK 03 AUDIO
TITLE "Chance"
PERFORMER "Savatage"
INDEX 01 08:47:40
TRACK 04 AUDIO
TITLE "Stare Into the Sun"
PERFORMER "Savatage"
INDEX 01 16:37:33
TRACK 05 AUDIO
TITLE "Castles Burning "
PERFORMER "Savatage"
INDEX 01 21:20:10
TRACK 06 AUDIO
TITLE "Visions"
PERFORMER "Savatage"
INDEX 01 25:58:63
TRACK 07 AUDIO
TITLE "Watching You Fall "
PERFORMER "Savatage"
INDEX 01 27:24:28
TRACK 08 AUDIO
TITLE "Nothing's Going On"
PERFORMER "Savatage"
INDEX 01 32:44:60
TRACK 09 AUDIO
TITLE "Symmetry"
PERFORMER "Savatage"
INDEX 01 36:52:68
TRACK 10 AUDIO
TITLE " Alone You Breathe"
PERFORMER "Savatage"
INDEX 01 41:56:68


http://www.megaupload.com/?d=23086130 [flac]

http://www.megaupload.com/?d=BAR08MD1 [320]

Любимый альбом :true:


Last edited by metallroll on 08 Mar 2010, edited 1 time in total.

Top
 Profile E-mail  
 
 
PostPosted: 08 Mar 2010 
Доктор энтомологии
User avatar
Joined: 22 Jan 2009
Posts: 9322
Lоcаtion: Даугавпилс
Age: 43
Name: Алексей
:true: :thanx:


Top
 Profile  
 
 
PostPosted: 08 Mar 2010 
Прокъмитолист
User avatar
Joined: 12 Aug 2007
Posts: 6471
Lоcаtion: Санктъ-Петербуркъ
Age: 50
Name: Олекъ
не могу сказать, что любимый (все-таки без вокала Джона - это уже другая команда получилась), но альбом неплох - один из лучших со Стивенсом, ага.

_________________
прокъметол - это музыко, от которово есть прок (ы)


Top
 Profile  
 
 
PostPosted: 08 Mar 2010 
Анатолий
User avatar
Joined: 18 Oct 2008
Posts: 3117
Lоcаtion: Армавир
Age: 41
Name: Анатолий
Ну это просто сказка какая-то! Только вчера подумал о том, чтобы спросить об этом релизе и вот он тут как тут! Мда... жаль что такой подарок подвалил прямиком на 8 марта, лучше бы конечно к 23 февраля, но даренному лосю, как говорится, между ног не заглядывают. :smile:

Спасибо большое! До сих пор на кассете слушал... :fingal: :oops:

P.S. Скольник, при всё уважении, откровенно разачаровал... увы...


Top
 Profile E-mail  
 
 
PostPosted: 08 Mar 2010 
metallpaparazzy
User avatar
Joined: 20 Dec 2009
Posts: 674
Lоcаtion: Днепропетровск
Age: 43
Name: Геннадий
Privateer wrote:
Скольник, при всё уважении, откровенно разачаровал... увы...

ну, ни знаю... мне, впервую очередь порадовал контраст по сравнению с его прошлым (ТЕСТАМЕНТОМ). Я поначалу даже не верил, что енто тот же гитарист -- такие лирические темки он тут лабет... :meloman:
spiralarch wrote:
все-таки без вокала Джона - это уже другая команда получилась

а мне именно его войс больше впирает... :oops: а с Оливой -- 85, ну и 87...
а вот сольники Оливы (доктор, пэйн) в кайф! мне кажется, что под то музло, что Саватаж в 90х воротили, голос Зака больше подходит -- более эпический, чтоли...
хотя, я пока в буклете "поэтов" не увидел, что опять Олива поет, думал что это Зак :fingal: а потом еще сам себе говорил -- тю, и ежу слышно -- это Олива! :true:


Top
 Profile E-mail  
 
 
PostPosted: 08 Mar 2010 
Power Metal Maniac
User avatar
Joined: 09 Aug 2008
Posts: 6299
Lоcаtion: Москва
Age: 40
Name: Егор
Ну на этом альбоме почти все инструметальные партии сам Джон Олива записал, лишь несколько соляков Школьник.
Альбом весьма неравномерный по материалу ИМХО. Нравятся мощнейшая почти трэшевая Taunting Cobras, потрясающая сифмо-композиция Chance и удивительная баллада Alone Your Breathe (пусть с куском Believe)

_________________
Long Live Metal!


Top
 Profile  
 
 
PostPosted: 10 Mar 2010 
Работнечег
User avatar
Joined: 28 Aug 2007
Posts: 5409
Lоcаtion: г. Москва
Age: 29
Name: Дима
Спасибо, прекрасный альбом!


Top
 Profile E-mail  
 
 
PostPosted: 10 Mar 2010 
5-speed satisfactor
User avatar
Joined: 16 Feb 2009
Posts: 3554
Lоcаtion: New York, USA
Age: 40
Name: Leonid
:thanx:

_________________
Death rules! Metal to all who oppose!


Top
 Profile  
 
Display posts from previous:  Sort by  
Post new topic Reply to topic  [ 8 posts ] 

All times are UTC + 3 hours


Who is online

Users browsing this forum: No registered users and 1 guest


You cannot post new topics in this forum
You cannot reply to topics in this forum
You cannot edit your posts in this forum
You cannot delete your posts in this forum
You cannot post attachments in this forum

Search for:
Яндекс.Метрика
Powered by phpBB © 2000, 2002, 2005, 2007 phpBB Group